ML
     
  Уважаемый Гость!
Вы можете поддержать проект и зарегистрироваться у наших партнеров - онлайн-стратегия MyLands. При регистрации в игре Вы получите код, который сможете активировать после регистрации на pirat.ca и получить 1000 дублонов.

Ваш код:
1a5b0a965618b2c406d4279ec9924ee6282c60cf
 
     

Ставка на любовь (Артем Михалков) [2015 г., комедия, мелодрама, WEB-DLRip] Original (RUS)[iTunes]

Ответить на тему
 
Автор
Сообщение

Пост 03-Мар-2016 18:13

[Q] 

aleksey99

--Ставка на любовь-- Производство: Россия
Год выпуска: 2015 г.
Жанр: комедия, мелодрама
Продолжительность: 01:32:01--Российская премьера: 11 февраля 2016, «Централ Партнершип», «All Media»--Режиссер: Артем Михалков--В ролях: Ованнес Азоян, Андрей Бурковский, Катерина Шпица, Ян Цапник, Вадим Андреев, Ольга Тумайкина, Александр Ревва, Дмитрий Хрусталев, Ирина Чипиженко, Алла Михеева--Описание: Костя и Давид — друзья детства, и вот спустя годы им, наконец, суждено проверить дружбу на прочность. Давид собирается сделать предложение своей возлюбленной, Анне, а Костя хочет выйти в финал международного чемпионата по покеру. Два, казалось бы, совершенно несвязанных события, становятся решающими в жизни друзей, так как Давиду придется играть в покер, а Косте — спасать свадьбу друга! Смогут ли они оставаться собой и спасти положение, поменявшись местами?-- --Качество видео: WEB-DLRip
Контейнер: AVI
Видео кодек: XviD
Аудио кодек: AC3
Видео: 720x304 (2.37:1), 24 fps, XviD build 50 ~1730 kbps avg, 0.33 bit/pixel
Аудио: 48 kHz, AC3 Dolby Digital, 3/2 (L,C,R,l,r) + LFE ch, ~384 kbps
Cубтитры: отсутствуют
Общее
Полное имя : H:\Torrent2\Stavka.Ha.Lu6ov.2016.O.WEB-DLRip.avi
Формат : AVI
Формат/Информация : Audio Video Interleave
Размер файла : 1,37 Гбайт
Продолжительность : 1 ч. 32 м.
Общий поток : 2124 Кбит/сек
Программа кодирования : VirtualDubMod 1.5.10.3 | www.virtualdub-fr.org || (build 2550/release)
Библиотека кодирования : VirtualDubMod build 2550/release
Видео
Идентификатор : 0
Формат : MPEG-4 Visual
Профиль формата : Advanced [email protected]
Параметр BVOP формата : 2
Параметр QPel формата : Нет
Параметр GMC формата : Без точки перехода
Параметр матрицы формата : Default (MPEG)
Идентификатор кодека : XVID
Идентификатор кодека/Подсказка : XviD
Продолжительность : 1 ч. 32 м.
Битрейт : 1731 Кбит/сек
Ширина : 720 пикселей
Высота : 304 пикселя
Соотношение сторон : 2,35:1
Частота кадров : 24,000 кадра/сек
Цветовое пространство : YUV
Субдискретизация насыщенности : 4:2:0
Битовая глубина : 8 бит
Тип развёртки : Прогрессивная
Метод сжатия : С потерями
Бит/(Пиксели*Кадры) : 0.329
Размер потока : 1,11 Гбайт (81%)
Библиотека кодирования : XviD 1.2.1 (UTC 2008-12-04)
Аудио
Идентификатор : 1
Формат : AC-3
Формат/Информация : Audio Coding 3
Расширение режима : CM (complete main)
Параметр Endianness формата : Big
Идентификатор кодека : 2000
Продолжительность : 1 ч. 32 м.
Вид битрейта : Постоянный
Битрейт : 384 Кбит/сек
Каналы : 6 каналов
Расположение каналов : Front: L C R, Side: L R, LFE
Частота : 48,0 КГц
Битовая глубина : 16 бит
Метод сжатия : С потерями
Размер потока : 253 Мбайт (18%)
Выравнивание : Разделение по промежуткам
Продолжительность промежутка : 42 мс. (1,00 видеокадр)
Время предзагрузки промежутка : 500 мс.
Трейлер
Download / Скачать

Хотите скачать бесплатно? Зарегистрируйтесь на сайте (ссылка на регистрацию). Pirat.ca - самый быстрый торрент трекер в рунете!

Как скачивать  ·   Что такое торрент  ·   Рейтинг и ограничения

Daemon_BS

Штурман

Пост 04-Мар-2016 17:11 (спустя 22 часа)

[Q] 

Раздающему респект! а фильм На любителя ну очень на любителя
[Профиль]  [ЛС] 

bioclown

Корсар

Пост 08-Мар-2016 09:42 (спустя 3 дня)

[Q] 

Что-то ожидать от этого фильма бессмысленно
[Профиль]  [ЛС] 

ягжин

Гроза морей

Пост 08-Мар-2016 12:03 (спустя 2 часа 21 минута)

[Q] 

Дурь! На любителя Отказать
[Профиль]  [ЛС] 

shurik1502

Лоцман

Пост 08-Мар-2016 21:44 (спустя 9 часов)

[Q] 

Спасибо, но фильм, как правильно сказали - НА Любителя!
[Профиль]  [ЛС] 

Barskavkaz

Корсар

Пост 08-Мар-2016 22:07 (спустя 23 минуты)

[Q] 

фильм на 1 разок.....

_________________
Д.Тк
[Профиль]  [ЛС] 

olmed

Корсар

Пост 04-Апр-2016 12:31 (спустя 26 дней)

[Q] 

На любителя
[Профиль]  [ЛС] 

Пост 06-Апр-2016 19:04 (спустя 2 дня 6 часов)

Топик был перенесен из форума Новинки (HD|DVD|BD| TV|SAT|PDTV| - Rips) в форум Российские фильмы
aleksey99
 

my1979

Корсар

Пост 15-Май-2016 20:49 (спустя 1 месяц 11 дней)

[Q] 

фильм на пол разка))
[Профиль]  [ЛС] 

dambrina

Флибустьер

Пост 25-Окт-2016 20:10 (спустя 5 месяцев 9 дней)

[Q] 

ничего не обычного, норм фильм, но второй раз смотреть не стал бы
[Профиль]  [ЛС] 
Показать сообщения:    
Ответить на тему

Текущее время: Сегодня 23:47

Часовой пояс: GMT + 4



Вы не можете начинать темы
Вы не можете отвечать на сообщения
Вы не можете редактировать свои сообщения
Вы не можете удалять свои сообщения
Вы не можете голосовать в опросах
Вы не можете прикреплять файлы к сообщениям
Вы не можете скачивать файлы

▼ Вниз