ML
     
  Уважаемый Гость!
Вы можете поддержать проект и зарегистрироваться у наших партнеров - онлайн-стратегия MyLands. При регистрации в игре Вы получите код, который сможете активировать после регистрации на pirat.ca и получить 1000 дублонов.

Ваш код:
062e2babcc491faeb40d496cf9a498ac3df6cdd0
 
     

В июне 41-го (Михаил Пташук) [2003, драма, военный, DVDRip]

Ответить на тему
 
Автор
Сообщение

Пост 10-Мар-2016 19:22

[Q] 

Боцман

В июне 41-го Название: В июне 41-го
Продолжительность: 01:27:07
Страна: Россия / США
Студия: Juja Films
Год выпуска: 2003
Жанр: Драма, военный
Язык: Английский
Перевод:Русский, Профессиональный (многоголосый, закадровый)
Режиссер: Михаил Пташук
В ролях: Лев Прыгунов, Нора Зетнер, Юрий Колокольников, Павел Константинов, Яков Явно, Марина Голуб, Александр Ткаченок, Александр Подобед, Иван Мацкевич О фильме: Драматическая любовная история разворачивается на фоне первых дней Великой Отечественной войны. 20-летняя американка Роза Ашкенази приезжает в маленькую белорусскую деревушку, родину ее родителей. Она хочет собрать музыкальный материал для бродвейского мюзикла. Девушка появляется в Ждановичах 20 июня 1941 года. Через два дня нацистские войска, начавшие наступление на Советский Союз, сгоняют все население деревушки в синагогу и сжигают беспомощных людей заживо. И только Розе удается спастись... Вместе с русским офицером Иваном Антоновым, уцелевшим после гибели своего батальона, Роза пытается догнать стремительно отступающий русский фронт. Между героями вспыхивает настоящая любовь...
Фильм "В июне 41-го" стал последней картиной известного белорусского кинорежиссера Михаила Пташука ("В августе 44-го"), трагически погибшего после съемок фильма. Качество: DVDRip (DVD5)
Формат: AVI
Видео кодек: DivX
Аудио кодек: Audio Coding 3
Видео: 720x544 (1.32:1), 25 fps, XviD build 50 ~1885 kbps avg, 0.19 bit/pixel
Аудио: 48 kHz, AC3 Dolby Digital, 3/2 (L,C,R,l,r) + LFE ch, ~384 kbps
Общее
Полное имя : F:\Отечественное Кино\В.июне.41-го.avi
Формат : AVI
Формат/Информация : Audio Video Interleave
Размер файла : 1,39 Гбайт
Продолжительность : 1 ч. 27 м.
Общий поток : 2277 Кбит/сек
Видео
Идентификатор : 0
Формат : MPEG-4 Visual
Профиль формата : Advanced [email protected]
Параметр BVOP формата : 1
Параметр QPel формата : Нет
Параметр GMC формата : Без точки перехода
Параметр матрицы формата : Default (MPEG)
Идентификатор кодека : XVID
Идентификатор кодека/Подсказка : XviD
Продолжительность : 1 ч. 27 м.
Битрейт : 1885 Кбит/сек
Ширина : 720 пикселей
Высота : 544 пикселя
Соотношение сторон : 4:3
Частота кадров : 25,000 кадров/сек
Цветовое пространство : YUV
Субдискретизация насыщенности : 4:2:0
Битовая глубина : 8 бит
Тип развёртки : Прогрессивная
Метод сжатия : С потерями
Бит/(Пиксели*Кадры) : 0.193
Размер потока : 1,15 Гбайт (83%)
Библиотека кодирования : XviD 1.2.1 (UTC 2008-12-04)
Аудио
Идентификатор : 1
Формат : AC-3
Формат/Информация : Audio Coding 3
Расширение режима : CM (complete main)
Параметр Endianness формата : Big
Идентификатор кодека : 2000
Продолжительность : 1 ч. 27 м.
Вид битрейта : Постоянный
Битрейт : 384 Кбит/сек
Каналы : 6 каналов
Расположение каналов : Front: L C R, Side: L R, LFE
Частота : 48,0 КГц
Битовая глубина : 16 бит
Метод сжатия : С потерями
Размер потока : 239 Мбайт (17%)
Выравнивание : Соединение по промежуткам
Продолжительность промежутка : 64 мс. (1,60 видеокадра)
Время предзагрузки промежутка : 512 мс.






Download / Скачать

Хотите скачать бесплатно? Зарегистрируйтесь на сайте (ссылка на регистрацию). Pirat.ca - самый быстрый торрент трекер в рунете!

Как скачивать  ·   Что такое торрент  ·   Рейтинг и ограничения

Алоизий

Флибустьер

Пост 23-Апр-2016 19:41 (спустя 1 месяц 13 дней)

[Q] 

Раздавать будем или как?
[Профиль]  [ЛС] 
Показать сообщения:    
Ответить на тему

Текущее время: Сегодня 17:38

Часовой пояс: GMT + 4



Вы не можете начинать темы
Вы не можете отвечать на сообщения
Вы не можете редактировать свои сообщения
Вы не можете удалять свои сообщения
Вы не можете голосовать в опросах
Вы не можете прикреплять файлы к сообщениям
Вы не можете скачивать файлы

▼ Вниз