ML
     
  Уважаемый Гость!
Вы можете поддержать проект и зарегистрироваться у наших партнеров - онлайн-стратегия MyLands. При регистрации в игре Вы получите код, который сможете активировать после регистрации на pirat.ca и получить 1000 дублонов.

Ваш код:
69f316be79867e9bf99caee9682d20bb11964507
 
     

Беременный (Сарик Андреасян) [2011 г., комедия, DVDRip]

Ответить на тему
 
Автор
Сообщение

Пост 27-Окт-2011 22:20

[Q] 

Moln1a

Корсар

Беременный
Год выпуска: 2011
Жанр: комедия
Продолжительность: 01:20:33
Режиссер: Сарик Андреасян
В ролях: Дмитрий Дюжев, Михаил Галустян, Анна Седокова, Вилле Хаапасало, Светлана Ходченкова, Дмитрий Шаракоис, Дмитрий Хрусталев, Виктор Васильев, Валентин Смирнитский, Людмила Артемьева
Описание: Главный герой - ведущий новостей на музыкальном канале Сергей Добролюбов. Своим консерватизмом он явно выбивается из коллектива модного канала. Его скепсис по отношению к чему-то новому - повод для насмешек коллег. Он точно не "звезда" канала. Сергей с женой очень хотят ребенка, но у них есть с этим проблемы. Помочь им может чудо, но Сергей в чудеса не верит... до определенного момента. Чудесным образом желание Сергея иметь ребенка исполняется… он беременеет?! Теперь уже нашему герою предстоит выступить перед близкими живым доказательством того, что чудеса случаются! Особенно символично, что эту новость жена, родители, брат, друг Жора узнали за ужином в честь Дня защитников Отечества. У последнего оказался вполне практичный подход к чуду. Жора убедил Сергея, что беременность не повод скрываться, а возможность обрести славу и деньги. Шоу «Беременный» становится самым популярным телевизионным проектом, а его главный герой - Сергей Добролюбов - настоящей звездой. Но совмещение статусов "мужчины, ждущего ребенка" и "звезды" оказывается непростой задачей.
Качество: DVDRip
Формат: AVI
Видео кодек: XviD
Аудио кодек: AC3
Видео: 720x304 (2.37:1), 25 fps, XviD MPEG-4 ~1952 kbps avg, 0.36 bit/pixel
Аудио: 48 kHz, AC3 Dolby Digital, 3/2 (L,C,R,l,r) + LFE ch, ~448 kbps
Формат : AVI
Формат/Информация : Audio Video Interleave
Размер файла : 1,36 Гбайт
Продолжительность : 1 ч. 20 м.
Общий поток : 2411 Кбит/сек
Программа кодирования : VirtualDubMod 1.5.10.2 (build 2540/release)
Библиотека кодирования : VirtualDubMod build 2540/release
Видео
Идентификатор : 0
Формат : MPEG-4 Visual
Профиль формата : Advanced [email protected]
Параметр BVOP формата : 2
Параметр QPel формата : Нет
Параметр GMC формата : Без точки перехода
Параметр матрицы формата : Default (H.263)
Режим смешивания : Сжатый битовый поток
Идентификатор кодека : XVID
Идентификатор кодека/Подсказка : XviD
Продолжительность : 1 ч. 20 м.
Битрейт : 1953 Кбит/сек
Ширина : 720 пикселей
Высота : 304 пикселя
Соотношение сторон : 2,35:1
Частота кадров : 25,000 кадров/сек
Цветовое пространство : YUV
Субдискретизация насыщенности : 4:2:0
Битовая глубина : 8 бит
Тип развёртки : Прогрессивная
Метод сжатия : С потерями
Бит/(Пиксели*Кадры) : 0.357
Размер потока : 1,10 Гбайт (81%)
Библиотека кодирования : XviD 64
Аудио
Идентификатор : 1
Формат : AC-3
Формат/Информация : Audio Coding 3
Расширение режима : CM (complete main)
Идентификатор кодека : 2000
Продолжительность : 1 ч. 20 м.
Вид битрейта : Постоянный
Битрейт : 448 Кбит/сек
Каналы : 6 каналов
Расположение каналов : Front: L C R, Side: L R, LFE
Частота : 48,0 КГц
Битовая глубина : 16 бит
Метод сжатия : С потерями
Размер потока : 258 Мбайт (19%)
Выравнивание : Разделение по промежуткам
Продолжительность промежутка : 40 мс. (1,00 видеокадр)
Время предзагрузки промежутка : 500 мс.



Download / Скачать

Хотите скачать бесплатно? Зарегистрируйтесь на сайте (ссылка на регистрацию). Pirat.ca - самый быстрый торрент трекер в рунете!

Как скачивать  ·   Что такое торрент  ·   Рейтинг и ограничения



Последний раз редактировалось: Moln1a (2011-10-28 08:43), всего редактировалось 2 раз(а)

LEVA

Лоцман

Пост 30-Окт-2011 20:48 (спустя 2 дня 22 часа)

[Q] 

Спасибо!Класс!
[Профиль]  [ЛС] 

wagon

Морской Волк

Пост 31-Окт-2011 18:21 (спустя 21 час)

[Q] 

Пасссибки!!!!!!!!
[Профиль]  [ЛС] 

IVANMEN

Штурман

Пост 05-Ноя-2011 17:54 (спустя 4 дня)

[Q] 

Спасибо!!!
[Профиль]  [ЛС] 

Vitos

Шкипер

Пост 07-Ноя-2011 11:05 (спустя 1 день 17 часов)

[Q] 

Пасиб!
[Профиль]  [ЛС] 

markuzek

Шкипер

Пост 09-Ноя-2011 00:30 (спустя 1 день 13 часов)

[Q] 

Отличный фильмец! Качество картинки Класс !!!
[Профиль]  [ЛС] 

molot

Штурман

Пост 15-Ноя-2011 09:20 (спустя 6 дней)

[Q] 

spasibo
[Профиль]  [ЛС] 

СерКат

Корсар

Пост 24-Ноя-2011 21:06 (спустя 9 дней)

[Q] 

спасибо
[Профиль]  [ЛС] 

GarySk

Корсар

Пост 07-Дек-2011 20:58 (спустя 12 дней)

[Q] 

Спасибо!!!!!
[Профиль]  [ЛС] 

GarySk

Корсар

Пост 26-Янв-2012 18:55 (спустя 1 месяц 18 дней)

[Q] 

Ужас, как ЭТО может нравиться?
[Профиль]  [ЛС] 

anonymoys

Гроза морей

901

Пост 05-Фев-2012 12:08 (спустя 9 дней)

[Q] 

[Профиль]  [ЛС] 
Показать сообщения:    
Ответить на тему

Текущее время: Сегодня 14:30

Часовой пояс: GMT + 4



Вы не можете начинать темы
Вы не можете отвечать на сообщения
Вы не можете редактировать свои сообщения
Вы не можете удалять свои сообщения
Вы не можете голосовать в опросах
Вы не можете прикреплять файлы к сообщениям
Вы не можете скачивать файлы

▼ Вниз