ML
     
  Уважаемый Гость!
Вы можете поддержать проект и зарегистрироваться у наших партнеров - онлайн-стратегия MyLands. При регистрации в игре Вы получите код, который сможете активировать после регистрации на pirat.ca и получить 1000 дублонов.

Ваш код:
2a3da67fd641d69eeebb7cb965232435a70eaa24
 
     

Тряпичный союз (Михаил Местецкий) [2015 г., комедия, драма, WEB-DLRip] Original (RUS) [iTunes]

Ответить на тему
 
Автор
Сообщение

Пост 28-Мар-2016 08:15

[Q] 

aleksey99

--Тряпичный союз-- Производство: Россия, Кинокомпания Коктебель
Год выпуска: 2015 г.
Жанр: комедия, драма
Продолжительность: 01:38:40--Российская премьера: 3 марта 2016, «Ракета Релизинг»--Режиссер: Михаил Местецкий--В ролях: Иван Янковский, Александр Паль, Василий Буткевич, Павел Чинарёв, Анастасия Пронина, Фёдор Лавров, Елена Нестерова, Владислав Ветров, Кирилл Кяро, Андрей Крыжний--Описание: Жизнь тихого подростка Вани меняется после знакомства с тремя очень странными парнями. Спортсмены, хулиганы, мечтатели, они называют себя «Тряпичный Союз» и верят, что изменят весь мир. Очарованный новой дружбой, Ваня поселяет парней у себя на даче и всеми силами пытается стать частью их «величайшей организации». Но у соседской девочки Саши свои планы на эту компанию.-- --Качество видео: WEB-DLRip
Контейнер: AVI
Видео кодек: XviD
Аудио кодек: AC3
Видео: 720x400 (1.80:1), 24 fps, XviD build 50 ~1726 kbps avg, 0.25 bit/pixel
Аудио: 48 kHz, AC3 Dolby Digital, 3/2 (L,C,R,l,r) + LFE ch, ~384 kbps
Cубтитры: отсутствуют
Общее
Полное имя : H:\Torrent2\Tr1py4Hy1.Coyu3.2016.O.WEB-DLRip.avi
Формат : AVI
Формат/Информация : Audio Video Interleave
Размер файла : 1,46 Гбайт
Продолжительность : 1 ч. 38 м.
Общий поток : 2120 Кбит/сек
Программа кодирования : VirtualDubMod 1.5.10.3 | www.virtualdub-fr.org || (build 2550/release)
Библиотека кодирования : VirtualDubMod build 2550/release
Видео
Идентификатор : 0
Формат : MPEG-4 Visual
Профиль формата : Advanced [email protected]
Параметр BVOP формата : 2
Параметр QPel формата : Нет
Параметр GMC формата : Без точки перехода
Параметр матрицы формата : Default (MPEG)
Идентификатор кодека : XVID
Идентификатор кодека/Подсказка : XviD
Продолжительность : 1 ч. 38 м.
Битрейт : 1727 Кбит/сек
Ширина : 720 пикселей
Высота : 400 пикселей
Соотношение сторон : 16:9
Частота кадров : 24,000 кадра/сек
Цветовое пространство : YUV
Субдискретизация насыщенности : 4:2:0
Битовая глубина : 8 бит
Тип развёртки : Прогрессивная
Метод сжатия : С потерями
Бит/(Пиксели*Кадры) : 0.250
Размер потока : 1,19 Гбайт (81%)
Библиотека кодирования : XviD 1.2.1 (UTC 2008-12-04)
Аудио
Идентификатор : 1
Формат : AC-3
Формат/Информация : Audio Coding 3
Расширение режима : CM (complete main)
Параметр Endianness формата : Big
Идентификатор кодека : 2000
Продолжительность : 1 ч. 38 м.
Вид битрейта : Постоянный
Битрейт : 384 Кбит/сек
Каналы : 6 каналов
Расположение каналов : Front: L C R, Side: L R, LFE
Частота : 48,0 КГц
Битовая глубина : 16 бит
Метод сжатия : С потерями
Размер потока : 271 Мбайт (18%)
Выравнивание : Разделение по промежуткам
Продолжительность промежутка : 42 мс. (1,00 видеокадр)
Время предзагрузки промежутка : 500 мс.
Трейлер
Download / Скачать

Хотите скачать бесплатно? Зарегистрируйтесь на сайте (ссылка на регистрацию). Pirat.ca - самый быстрый торрент трекер в рунете!

Как скачивать  ·   Что такое торрент  ·   Рейтинг и ограничения

Роман1412

Морской Волк

Пост 29-Мар-2016 14:52 (спустя 1 день 6 часов)

[Q] 

128 раз скачан и не одного комментария, как фильм?
[Профиль]  [ЛС] 

Barskavkaz

Корсар

Пост 30-Мар-2016 00:46 (спустя 9 часов)

[Q] 

присоединяюсь 164 раза скачан) не одного коммента, неужели все так плохо?
Добавлено спустя 55 минут 59 секунд:
полная хрень, проматал почти весь фильм, смотреть невозможно

_________________
Д.Тк
[Профиль]  [ЛС] 

dronofill

Корсар

Пост 30-Мар-2016 22:22 (спустя 21 час)

[Q] 

188 раз скачан) и не одного комента, как фильм)?

_________________
Мира и добра)
[Профиль]  [ЛС] 

crash27

Лоцман

Пост 01-Апр-2016 00:43 (спустя 1 день 2 часа)

[Q] 

Шок - это по - нашему
[Профиль]  [ЛС] 

Barskavkaz

Корсар

Пост 01-Апр-2016 13:04 (спустя 12 часов)

[Q] 

что тут непонятного? фильм жесткий шлак)

_________________
Д.Тк
[Профиль]  [ЛС] 

grosboy

Флибустьер

Пост 04-Апр-2016 17:58 (спустя 3 дня)

[Q] 

Чё-то мне уже после таких коментов и смотреть не хочется.

_________________
Щастье есть - его не может не быть...
[Профиль]  [ЛС] 

jenya-kopew

Корсар

Пост 11-Апр-2016 20:03 (спустя 7 дней)

[Q] 

Полный бред,про дебилов.
[Профиль]  [ЛС] 

ТАЛИ

Корсар

Пост 27-Апр-2016 00:13 (спустя 15 дней)

[Q] 

-Мы ничего не можем сделать.
-Тем более нужно что-то делать!
Да, фильмец неоднозначный, при поверхностном просмотре даже депрессивный. Да и при более детальном рассмотрении тоже...Большинству эта тема - ищущих, мятущихся бездельников и социопатов вообще не близка. Но, все равно, в молодости многие пережили протестное состояние, у многих был соблазн во что-то ввязаться, натворить каких-то глупостей... Фильм вот о таком вот максимализме и инфантилизме.
Лично мне не понравилось непонятное перевоплощение ГГ из дебелого аутиста и чуть ли не шизофреника в прямо-таки философа и вообще единственного адекватного персонажа... Если таким образом хотели показать взросление героя, то явно пережали.
Но, в принципе, кино годное, если не ожидать от него непринужденного развлекалова.
[Профиль]  [ЛС] 

Пост 03-Май-2016 09:16 (спустя 6 дней)

Топик был перенесен из форума Новинки (HD|DVD|BD| TV|SAT|PDTV| - Rips) в форум Российские фильмы
aleksey99
 

s_s

Гроза морей

Пост 15-Июн-2016 21:23 (спустя 1 месяц 18 дней)

[Q] 

Актерский состав интересен, поглядим, спасибо;)

_________________
в себе самом добра со злом
[Профиль]  [ЛС] 
Показать сообщения:    
Ответить на тему

Текущее время: Сегодня 01:12

Часовой пояс: GMT + 4



Вы не можете начинать темы
Вы не можете отвечать на сообщения
Вы не можете редактировать свои сообщения
Вы не можете удалять свои сообщения
Вы не можете голосовать в опросах
Вы не можете прикреплять файлы к сообщениям
Вы не можете скачивать файлы

▼ Вниз