ML
     
  Уважаемый Гость!
Вы можете поддержать проект и зарегистрироваться у наших партнеров - онлайн-стратегия MyLands. При регистрации в игре Вы получите код, который сможете активировать после регистрации на pirat.ca и получить 1000 дублонов.

Ваш код:
59354507ba913a0948d1a8f2e30f2e04c4cd7b9b
 
     

Чемпионы: Быстрее. Выше. Сильнее (Артем Аксененко) [2016 г., спорт, драма, BDRip] Original (RUS) [Лицензия]

Ответить на тему
 
Автор
Сообщение

Пост 28-Мар-2016 10:51

[Q] 

aleksey99

--Чемпионы: Быстрее. Выше. Сильнее-- Производство: Россия, Enjoy Movies
Год выпуска: 2016 г.
Жанр: спорт, драма
Продолжительность: 01:43:48--Российская премьера: 18 февраля 2016, «Двадцатый Век Фокс СНГ»--Режиссер: Артем Аксененко--В ролях: Евгений Пронин, Кристина Асмус, Сергей Бондарчук мл., Сергей Сосновский, Егор Корешков, Александр Робак, Дарья Екамасова, Виктор Хориняк, Джемал Тетруашвили, Борис Полунин, Мария Болонкина, Виктория Толстоганова, Василий Мищенко, Александр Галибин, Ксения Щербакова--Описание: В мире их называли «Асфальтоукладчик», «Королева брусьев» и «Русская торпеда». Борец Александр Карелин, гимнастка Светлана Хоркина и пловец Александр Попов — реальные истории трех легендарных российских спортсменов, на общем счету которых 9 золотых олимпийских медалей и больше тысячи побед! У каждого был свой путь, своя уникальная драматическая история восхождения. Три яркие новеллы, основанные на реальных событиях, расскажут о том, что осталось за кадром спортивной хроники и каким был путь к высшему спортивному достижению — Олимпийский чемпион. Они стали легендами мирового спорта и дали возможность всей стране сказать «Мы победили!».-- --Качество видео: BDRip
Контейнер: AVI
Видео кодек: XviD
Аудио кодек: AC3
Видео: 720x304 (2.37:1), 24 fps, XviD build 73 ~1554 kbps avg, 0.30 bit/pixel
Аудио: 48 kHz, AC3 Dolby Digital, 3/2 (L,C,R,l,r) + LFE ch, ~448 kbps
Cубтитры: отсутствуют
Общее
Полное имя : H:\Torrent2\Chempiony.Bystree.Vyshe.Silnee.2016.O.BDRip.1.46Gb.avi
Формат : AVI
Формат/Информация : Audio Video Interleave
Размер файла : 1,46 Гбайт
Продолжительность : 1 ч. 43 м.
Общий поток : 2012 Кбит/сек
Программа кодирования : VirtualDubMod 1.5.10.3 (build 2550/release)
Видео
Идентификатор : 0
Формат : MPEG-4 Visual
Профиль формата : Advanced [email protected]
Параметр BVOP формата : 2
Параметр QPel формата : Нет
Параметр GMC формата : Без точки перехода
Параметр матрицы формата : Выборочная
Идентификатор кодека : XVID
Идентификатор кодека/Подсказка : XviD
Продолжительность : 1 ч. 43 м.
Битрейт : 1555 Кбит/сек
Ширина : 720 пикселей
Высота : 304 пикселя
Соотношение сторон : 2,35:1
Частота кадров : 24,000 кадра/сек
Цветовое пространство : YUV
Субдискретизация насыщенности : 4:2:0
Битовая глубина : 8 бит
Тип развёртки : Прогрессивная
Метод сжатия : С потерями
Бит/(Пиксели*Кадры) : 0.296
Размер потока : 1,13 Гбайт (77%)
Библиотека кодирования : XviD 73
Аудио
Идентификатор : 1
Формат : AC-3
Формат/Информация : Audio Coding 3
Расширение режима : CM (complete main)
Параметр Endianness формата : Big
Идентификатор кодека : 2000
Продолжительность : 1 ч. 43 м.
Вид битрейта : Постоянный
Битрейт : 448 Кбит/сек
Каналы : 6 каналов
Расположение каналов : Front: L C R, Side: L R, LFE
Частота : 48,0 КГц
Битовая глубина : 16 бит
Метод сжатия : С потерями
Размер потока : 333 Мбайт (22%)
Выравнивание : Разделение по промежуткам
Продолжительность промежутка : 42 мс. (1,00 видеокадр)
Время предзагрузки промежутка : 500 мс.
Трейлер
Download / Скачать

Хотите скачать бесплатно? Зарегистрируйтесь на сайте (ссылка на регистрацию). Pirat.ca - самый быстрый торрент трекер в рунете!

Как скачивать  ·   Что такое торрент  ·   Рейтинг и ограничения



Последний раз редактировалось: aleksey99 (2016-04-01 09:13), всего редактировалось 1 раз

MATRICA93

Штурман

Пост 28-Мар-2016 15:02 (спустя 4 часа)

[Q] 

Спасибо! держи бочку! Лови бочку
[Профиль]  [ЛС] 

Марат1987

Лоцман

Пост 30-Мар-2016 02:33 (спустя 1 день 11 часов)

[Q] 

бондарчук анал как и всегда,кривая игра
[Профиль]  [ЛС] 

RozM

Морской Волк

Пост 30-Мар-2016 15:30 (спустя 12 часов)

[Q] 

Кино вполне достойное. Даже для тех кто за спортом не следил и не следит, и эти фамилии мало что говорят (например мне), кино должно понравиться. Оно несет в себе некую философию жизни, не отчаивайся, борись и добьешься успеха. Получился один из немногих правильных российских фильмов.
Мой итог: 9 из 10. Рекомендую к домашнему, семейному и личному просмотру.
Мне понравилось
[Профиль]  [ЛС] 

aleksey99 ®

282294

Пост 01-Апр-2016 09:15 (спустя 1 день 17 часов)

[Q] 

Файл заменён на BDRip, звук [Лицензия]

_________________

[Профиль]  [ЛС] 

grosboy

Флибустьер

Пост 01-Апр-2016 10:08 (спустя 53 минуты)

[Q] 

Позитивный фильм. Рекомендую для просмотра.

_________________
Щастье есть - его не может не быть...
[Профиль]  [ЛС] 

Алоизий

Флибустьер

Пост 01-Апр-2016 14:39 (спустя 4 часа)

[Q] 

Спасибо!
[Профиль]  [ЛС] 

olmed

Корсар

Пост 04-Апр-2016 12:06 (спустя 2 дня 21 час)

[Q] 

Спасибо!!! Посмотрим
[Профиль]  [ЛС] 

Barskavkaz

Корсар

Пост 05-Апр-2016 14:18 (спустя 1 день 2 часа)

[Q] 

Хороший фильм, понравился.

_________________
Д.Тк
[Профиль]  [ЛС] 

Пост 04-Май-2016 21:42 (спустя 29 дней)

Топик был перенесен из форума Новинки (HD|DVD|BD| TV|SAT|PDTV| - Rips) в форум Российские фильмы
aleksey99
 

lexaspirit

Пост 09-Авг-2016 14:28 (спустя 4 месяца 4 дня)

[Q] 

Фильм о там как упорством можно добиться больших результатов. Очень понравился

_________________
-------------------- ----------------------
[Профиль]  [ЛС] 
Показать сообщения:    
Ответить на тему

Текущее время: Сегодня 16:08

Часовой пояс: GMT + 4



Вы не можете начинать темы
Вы не можете отвечать на сообщения
Вы не можете редактировать свои сообщения
Вы не можете удалять свои сообщения
Вы не можете голосовать в опросах
Вы не можете прикреплять файлы к сообщениям
Вы не можете скачивать файлы

▼ Вниз