ML
     
  Уважаемый Гость!
Вы можете поддержать проект и зарегистрироваться у наших партнеров - онлайн-стратегия MyLands. При регистрации в игре Вы получите код, который сможете активировать после регистрации на pirat.ca и получить 1000 дублонов.

Ваш код:
ec3b26eefbcdc72e08e9fd33c6846bb2ca10f8b1
 
     

Уроки выживания (Андрей Томашевский) [2016 г., комедия, семейный, приключения, WEB-DLRip] Original (RUS) [iTunes]

Ответить на тему
 
Автор
Сообщение

Пост 14-Апр-2016 15:23

[Q] 

aleksey99

--Уроки выживания--«Инструкция для начинающих героев»-- Производство: Россия, KinoProGroup
Год выпуска: 2016 г.
Жанр: комедия, семейный, приключения
Продолжительность: 01:22:44--Российская премьера: 24 марта 2016, «Парадиз»--Режиссер: Андрей Томашевский--В ролях: Денис Никифоров, Илья Костюков, Екатерина Волкова, Александр Самойленко, Анастасия Черникова--Описание: Женя Аистов — брутальный красавец и лихой летчик. Он знает толк в жизни и женщинах, ценит свободу и… не любит детей. Когда-то он был командиром воздушного судна, а ныне управляет маленьким самолетом, доставляющим грузы на экзотический курорт. Однажды он терпит крушение на необитаемом острове. Но самое ужасное, что вместе с ним на острове оказывается 8-летний мальчишка, смешной и занудливый Коля. Так началась эта веселая «игра» на выживание…-- --Качество видео: WEB-DLRip
Контейнер: AVI
Видео кодек: XviD
Аудио кодек: AC3
Видео: 720x304 (2.37:1), 25 fps, XviD build 50 ~1974 kbps avg, 0.36 bit/pixel
Аудио: 48 kHz, AC3 Dolby Digital, 3/2 (L,C,R,l,r) + LFE ch, ~384 kbps
Cубтитры: отсутствуют
Общее
Полное имя : H:\Torrent2\YPoK1.BizhyBaH1a.2016.O.WEB-DLRip.1400MB.avi
Формат : AVI
Формат/Информация : Audio Video Interleave
Размер файла : 1,37 Гбайт
Продолжительность : 1 ч. 22 м.
Общий поток : 2368 Кбит/сек
Программа кодирования : VirtualDubMod 1.5.10.3 | www.virtualdub-fr.org || (build 2550/release)
Библиотека кодирования : VirtualDubMod build 2550/release
Видео
Идентификатор : 0
Формат : MPEG-4 Visual
Профиль формата : Advanced [email protected]
Параметр BVOP формата : 2
Параметр QPel формата : Нет
Параметр GMC формата : Без точки перехода
Параметр матрицы формата : Default (MPEG)
Идентификатор кодека : XVID
Идентификатор кодека/Подсказка : XviD
Продолжительность : 1 ч. 22 м.
Битрейт : 1975 Кбит/сек
Ширина : 720 пикселей
Высота : 304 пикселя
Соотношение сторон : 2,35:1
Частота кадров : 25,000 кадров/сек
Цветовое пространство : YUV
Субдискретизация насыщенности : 4:2:0
Битовая глубина : 8 бит
Тип развёртки : Прогрессивная
Метод сжатия : С потерями
Бит/(Пиксели*Кадры) : 0.361
Размер потока : 1,14 Гбайт (83%)
Библиотека кодирования : XviD 1.2.1 (UTC 2008-12-04)
Аудио
Идентификатор : 1
Формат : AC-3
Формат/Информация : Audio Coding 3
Расширение режима : CM (complete main)
Параметр Endianness формата : Big
Идентификатор кодека : 2000
Продолжительность : 1 ч. 22 м.
Вид битрейта : Постоянный
Битрейт : 384 Кбит/сек
Каналы : 6 каналов
Расположение каналов : Front: L C R, Side: L R, LFE
Частота : 48,0 КГц
Битовая глубина : 16 бит
Метод сжатия : С потерями
Размер потока : 227 Мбайт (16%)
Выравнивание : Разделение по промежуткам
Продолжительность промежутка : 40 мс. (1,00 видеокадр)
Время предзагрузки промежутка : 500 мс.
Трейлер
Download / Скачать

Хотите скачать бесплатно? Зарегистрируйтесь на сайте (ссылка на регистрацию). Pirat.ca - самый быстрый торрент трекер в рунете!

Как скачивать  ·   Что такое торрент  ·   Рейтинг и ограничения

Barskavkaz

Корсар

Пост 14-Апр-2016 20:06 (спустя 4 часа)

[Q] 

кто смотрел сие чудо?

_________________
Д.Тк
[Профиль]  [ЛС] 

civic_85

Корсар

Пост 15-Апр-2016 00:16 (спустя 4 часа)

[Q] 

думаю не стоит этого делать))

_________________
[Профиль]  [ЛС] 

mb1969

Корсар

Пост 06-Май-2016 00:44 (спустя 21 день)

[Q] 

Просто фильм. Посмотрел и забыл.
[Профиль]  [ЛС] 

ТАЛИ

Корсар

Пост 08-Май-2016 20:39 (спустя 2 дня 19 часов)

[Q] 

Фильм яркий, позитивный, но ни о чем вообще. Хоть бы какие-нибудь дельные уроки лайфхака дали для детишек, а то ограничились только тем, как на пальму влезть. Короче, дурацкий кинчик, если совсем уж смотреть нечего...
[Профиль]  [ЛС] 

Пост 16-Май-2016 17:06 (спустя 7 дней)

Топик был перенесен из форума Новинки (HD|DVD|BD| TV|SAT|PDTV| - Rips) в форум Российские фильмы
aleksey99
 
Показать сообщения:    
Ответить на тему

Текущее время: Сегодня 03:48

Часовой пояс: GMT + 4



Вы не можете начинать темы
Вы не можете отвечать на сообщения
Вы не можете редактировать свои сообщения
Вы не можете удалять свои сообщения
Вы не можете голосовать в опросах
Вы не можете прикреплять файлы к сообщениям
Вы не можете скачивать файлы

▼ Вниз