ML
     
  Уважаемый Гость!
Вы можете поддержать проект и зарегистрироваться у наших партнеров - онлайн-стратегия MyLands. При регистрации в игре Вы получите код, который сможете активировать после регистрации на pirat.ca и получить 1000 дублонов.

Ваш код:
74c28610d77aaac24ba694c4128f3b9b46b04220
 
     

Любовь напрокат (Вазген Каграманян) [2014 г., мелодрама, комедия, WEB-DLRip-AVC] Original (RUS) [iTunes]

Ответить на тему
 
Автор
Сообщение

Пост 23-Апр-2016 18:39

[Q] 

aleksey99

--Любовь напрокат-- Производство: Россия, RU Media
Год выпуска: 2014 г.
Жанр: мелодрама, комедия
Продолжительность: 01:40:05--Релиз на DVD: 5 апреля 2016, «Мистерия Звука»--Режиссер: Вазген Каграманян--В ролях: Елена Подкаминская, Дмитрий Миллер, Елена Валюшкина, Грант Каграманян, Иван Шмаков, Евгения Соляных, Михаил Полицеймако, Алина Ольшанская, Анжела Белянская, Екатерина Рокотова--Описание: К преуспевающему бизнесмену Александру приезжает богатая родственница из Америки. 15 лет назад она дала ему начальный капитал и теперь хочет посмотреть, как он им распорядился, а также познакомиться с его семьей. Но проблема в том, что семьи у Александра нет: он ее выдумал, чтобы произвести хорошее впечатление на тетю. Если обман откроется, Александр может лишиться своего бизнеса и наследства. Друг Борис предлагает неожиданный выход: взять напрокат его семью…-- --Качество видео: WEB-DLRip-AVC
Контейнер: MKV
Видео кодек: H.264
Аудио кодек: AC3
Видео: AVC at 2630 Кбит/сек, 1024x576 at 25.000 fps
Аудио: 48 kHz, AC3 2 ch, 192 Кбит/с
Cубтитры: отсутствуют
Общее
Уникальный идентификатор : 194040934754875352610420653991343265039 (0x91FAECB70CF3DF0298A9AAA8A2A5950F)
Полное имя : H:\Torrent2\Love.For.Rent.2014.x264.WEB-DLRip.AVC.mkv
Формат : Matroska
Версия формата : Version 2
Размер файла : 1,97 Гбайт
Продолжительность : 1 ч. 40 м.
Общий поток : 2824 Кбит/сек
Название фильма : Любовь Напрокат.2014.Rip by: ollan
Дата кодирования : UTC 2016-04-23 05:13:27
Программа кодирования : mkvmerge v5.6.0 ('Kenya Kane') built on May 27 2012 16:44:04
Библиотека кодирования : libebml v1.2.3 + libmatroska v1.3.0
Attachment : Yes
Видео
Идентификатор : 1
Формат : AVC
Формат/Информация : Advanced Video Codec
Профиль формата : [email protected]
Параметр CABAC формата : Да
Параметр ReFrames формата : 10 кадров
Идентификатор кодека : V_MPEG4/ISO/AVC
Продолжительность : 1 ч. 40 м.
Битрейт : 2630 Кбит/сек
Ширина : 1024 пикселя
Высота : 576 пикселей
Соотношение сторон : 16:9
Режим частоты кадров : Постоянный
Частота кадров : 25,000 кадров/сек
Цветовое пространство : YUV
Субдискретизация насыщенности : 4:2:0
Битовая глубина : 8 бит
Тип развёртки : Прогрессивная
Бит/(Пиксели*Кадры) : 0.178
Размер потока : 1,80 Гбайт (91%)
Библиотека кодирования : x264 core 146 r2538 121396c
Настройки программы : cabac=1 / ref=10 / deblock=1:-3:-3 / analyse=0x3:0x133 / me=umh / subme=11 / psy=1 / psy_rd=1.00:0.05 / mixed_ref=1 / me_range=48 / chroma_me=1 / trellis=2 / 8x8dct=1 / cqm=0 / deadzone=21,11 / fast_pskip=0 / chroma_qp_offset=-3 / threads=12 / lookahead_threads=2 / sliced_threads=0 / nr=0 / decimate=0 / interlaced=0 / bluray_compat=0 / constrained_intra=0 / bframes=9 / b_pyramid=2 / b_adapt=2 / b_bias=0 / direct=3 / weightb=1 / open_gop=0 / weightp=2 / keyint=250 / keyint_min=25 / scenecut=40 / intra_refresh=0 / rc_lookahead=40 / rc=2pass / mbtree=0 / bitrate=2630 / ratetol=1.0 / qcomp=0.60 / qpmin=0 / qpmax=69 / qpstep=4 / cplxblur=20.0 / qblur=0.5 / vbv_maxrate=50000 / vbv_bufsize=62500 / nal_hrd=none / filler=0 / ip_ratio=1.40 / pb_ratio=1.30 / aq=1:1.00
Язык : Russian
Default : Да
Forced : Нет
Аудио
Идентификатор : 2
Формат : AC-3
Формат/Информация : Audio Coding 3
Расширение режима : CM (complete main)
Параметр Endianness формата : Big
Идентификатор кодека : A_AC3
Продолжительность : 1 ч. 40 м.
Вид битрейта : Постоянный
Битрейт : 192 Кбит/сек
Каналы : 2 канала
Расположение каналов : Front: L R
Частота : 48,0 КГц
Битовая глубина : 16 бит
Метод сжатия : С потерями
Размер потока : 137 Мбайт (7%)
Язык : Russian
Default : Да
Forced : Нет
Меню
00:00:00.000 : ru:Chapter 01
00:05:42.280 : ru:Chapter 02
00:12:14.360 : ru:Chapter 03
00:18:05.920 : ru:Chapter 04
00:23:30.800 : ru:Chapter 05
00:29:01.800 : ru:Chapter 06
00:34:27.080 : ru:Chapter 07
00:40:37.200 : ru:Chapter 08
00:46:04.440 : ru:Chapter 09
00:51:24.920 : ru:Chapter 10
00:57:18.040 : ru:Chapter 11
01:03:01.400 : ru:Chapter 12
01:08:28.720 : ru:Chapter 13
01:14:53.040 : ru:Chapter 14
01:22:05.600 : ru:Chapter 15
01:28:31.840 : ru:Chapter 16
01:34:04.040 : ru:Chapter 17
Трейлер
Download / Скачать

Хотите скачать бесплатно? Зарегистрируйтесь на сайте (ссылка на регистрацию). Pirat.ca - самый быстрый торрент трекер в рунете!

Как скачивать  ·   Что такое торрент  ·   Рейтинг и ограничения

Алоизий

Флибустьер

Пост 23-Апр-2016 19:19 (спустя 39 минут)

[Q] 

Спасибо!!!
[Профиль]  [ЛС] 

mct31

Лоцман

11

Пост 24-Апр-2016 23:24 (спустя 1 день 4 часа)

[Q] 

С годом выпуска не перепутали? Модератор не слажал... Модератор не слажал...
[Профиль]  [ЛС] 

ТАЛИ

Корсар

Пост 25-Апр-2016 21:09 (спустя 21 час)

[Q] 

Есть ромкомы вроде и с затасканным, предсказуемым сюжетом, но которые хочется просмотреть от начала и до конца. Здесь желания такого не возникло. Минут 15-20 в начале и 10 в конце посмотреть - вполне достаточно. А можно и вообще не смотреть.
[Профиль]  [ЛС] 

I_G_O_R

Лоцман

Пост 26-Апр-2016 13:24 (спустя 16 часов)

[Q] 

Полный шлак. Делать фильмы так и не научились.
[Профиль]  [ЛС] 

litvig

Морской Волк

Пост 30-Апр-2016 19:35 (спустя 4 дня)

[Q] 

посмотреть можно один раз Автору респект!!! Спасибо!!!
[Профиль]  [ЛС] 

Пост 31-Май-2016 14:26 (спустя 1 месяц)

Топик был перенесен из форума Новинки (HD|DVD|BD| TV|SAT|PDTV| - Rips) в форум Российские фильмы
aleksey99
 
Показать сообщения:    
Ответить на тему

Текущее время: Сегодня 10:00

Часовой пояс: GMT + 4



Вы не можете начинать темы
Вы не можете отвечать на сообщения
Вы не можете редактировать свои сообщения
Вы не можете удалять свои сообщения
Вы не можете голосовать в опросах
Вы не можете прикреплять файлы к сообщениям
Вы не можете скачивать файлы

▼ Вниз