ML
     
  Уважаемый Гость!
Вы можете поддержать проект и зарегистрироваться у наших партнеров - онлайн-стратегия MyLands. При регистрации в игре Вы получите код, который сможете активировать после регистрации на pirat.ca и получить 1000 дублонов.

Ваш код:
93dbf9fbdfa06c41d3b5a2c3921149ba36168c41
 
     

Герой (Юрий Васильев) [2016 г., драма, военный, WEB-DLRip] Original (RUS) [iTunes]

Ответить на тему
 
Автор
Сообщение

Пост 25-Апр-2016 08:19

[Q] 

aleksey99

--Герой--«С верой за Россию»-- Производство: Россия, Фонд кино
Год выпуска: 2016 г.
Жанр: драма, военный
Продолжительность: 01:16:08--Российская премьера: 31 марта 2016, «Каропрокат»--Режиссер: Юрий Васильев--В ролях: Дима Билан, Светлана Иванова, Александр Балуев, Татьяна Лютаева, Юлия Пересильд, Александр Головин, Марат Башаров, Александр Адабашьян, Лилита Озолиня, Александр Васильев--Описание: Начало ХХ века. Юная княжна Вера Чернышева и поручик Андрей Долматов знакомятся при весьма странных обстоятельствах. Симпатия, любовь… впереди, казалось, счастливая жизнь. И вдруг — катастрофа. Первая мировая война уводит его на фронт, а ее — медсестрой в госпиталь. Мир перевернулся, он охвачен ненавистью, злобой, жаждой власти. Одна война сменяет другую. Люди делятся на два враждующих лагеря, начинают судить друг друга, чинить жестокую расправу. Огонь времени губит все на своем пути, но любовь — бессмертна, она соединяет несколько поколений и напоминает о себе спустя сто лет.-- --Качество видео: WEB-DLRip
Контейнер: AVI
Видео кодек: XviD
Аудио кодек: AC3
Видео: 720x304 (2.37:1), 25 fps, XviD build 50 ~2176 kbps avg, 0.40 bit/pixel
Аудио: 48 kHz, AC3 Dolby Digital, 3/2 (L,C,R,l,r) + LFE ch, ~384 kbps
Cубтитры: отсутствуют
Общее
Полное имя : H:\Torrent2\GerOy.2O16.O.WEB-DLRip.14OOMB.avi
Формат : AVI
Формат/Информация : Audio Video Interleave
Размер файла : 1,37 Гбайт
Продолжительность : 1 ч. 16 м.
Общий поток : 2571 Кбит/сек
Программа кодирования : VirtualDubMod 1.5.10.2 (build 2540/release)
Библиотека кодирования : VirtualDubMod build 2540/release
Видео
Идентификатор : 0
Формат : MPEG-4 Visual
Профиль формата : Advanced [email protected]
Параметр BVOP формата : 2
Параметр QPel формата : Нет
Параметр GMC формата : Без точки перехода
Параметр матрицы формата : Default (MPEG)
Идентификатор кодека : XVID
Идентификатор кодека/Подсказка : XviD
Продолжительность : 1 ч. 16 м.
Битрейт : 2177 Кбит/сек
Ширина : 720 пикселей
Высота : 304 пикселя
Соотношение сторон : 2,35:1
Частота кадров : 25,000 кадров/сек
Цветовое пространство : YUV
Субдискретизация насыщенности : 4:2:0
Битовая глубина : 8 бит
Тип развёртки : Прогрессивная
Метод сжатия : С потерями
Бит/(Пиксели*Кадры) : 0.398
Размер потока : 1,16 Гбайт (85%)
Библиотека кодирования : XviD 1.2.1 (UTC 2008-12-04)
Аудио
Идентификатор : 1
Формат : AC-3
Формат/Информация : Audio Coding 3
Расширение режима : CM (complete main)
Параметр Endianness формата : Big
Идентификатор кодека : 2000
Продолжительность : 1 ч. 16 м.
Вид битрейта : Постоянный
Битрейт : 384 Кбит/сек
Каналы : 6 каналов
Расположение каналов : Front: L C R, Side: L R, LFE
Частота : 48,0 КГц
Битовая глубина : 16 бит
Метод сжатия : С потерями
Размер потока : 209 Мбайт (15%)
Выравнивание : Разделение по промежуткам
Продолжительность промежутка : 40 мс. (1,00 видеокадр)
Время предзагрузки промежутка : 500 мс.
Трейлер
Download / Скачать

Хотите скачать бесплатно? Зарегистрируйтесь на сайте (ссылка на регистрацию). Pirat.ca - самый быстрый торрент трекер в рунете!

Как скачивать  ·   Что такое торрент  ·   Рейтинг и ограничения

ZiminY

Гроза морей

3242

Пост 25-Апр-2016 08:39 (спустя 19 минут)

[Q] 

Билан - герой???

_________________
[Профиль]  [ЛС] 

Scull666

Шкипер

Пост 25-Апр-2016 10:09 (спустя 1 час 30 минут)

[Q] 

Билан - герой???
Я знаю точно: невозможное - возможно...
[Профиль]  [ЛС] 

viji

Корсар

Пост 25-Апр-2016 11:16 (спустя 1 час 7 минут)

[Q] 

Билан отличный парень. Всё, что надо у него есть: талант, харизма, известность. Это вам не какой-то Шрэк в спортивном костюме, задающий вопросы на каком-то трэкере :)
[Профиль]  [ЛС] 

MaXoR

Флибустьер

1474

Пост 25-Апр-2016 17:14 (спустя 5 часов)

[Q] 

Как фильм-то? А то пока боязно качать!

_________________
Живы будем - не помрем!
[Профиль]  [ЛС] 

ss80

Флибустьер

36

Пост 25-Апр-2016 21:40 (спустя 4 часа)

[Q] 

Автору респект!!! Спасибо!!!
[Профиль]  [ЛС] 

ZiminY

Гроза морей

3242

Пост 25-Апр-2016 22:19 (спустя 39 минут)

[Q] 

747832Билан отличный парень...
Не знаю, лично не знаком...
747865Как фильм-то? А то пока боязно качать!
Когда пошли финальные титры, мысль была одна: "Ну и фигня!" Хотя надо отдать должное Билану, он очень старался. Но герой получился неубедительным. На мой взгляд...
Раздающему респект!

_________________
[Профиль]  [ЛС] 

grosboy

Флибустьер

Пост 26-Апр-2016 10:20 (спустя 12 часов)

[Q] 

Наверно решили продюсеры доходы от Белана увеличить, вот и начали пихать куда не попадя, то программу "Голос" ведёт, то в других проектах участвует. И всем им почему-то кажется что если под фонерку поплясал на сцене, так сразу и актёром стал великолепным. Может ещё на Оскар номенируете или Заслуженого артиста додите. Бабки конечно решают все, но надо как-то скромнее быть...

_________________
Щастье есть - его не может не быть...
[Профиль]  [ЛС] 

Reaper_1975

Лоцман

Пост 27-Апр-2016 21:43 (спустя 1 день 11 часов)

[Q] 

747832Билан отличный парень. Всё, что надо у него есть: талант, харизма, известность. Это вам не какой-то Шрэк в спортивном костюме, задающий вопросы на каком-то трэкере :)
- Правильно, сам себя не похвалишь, - никто не похвалит! Правда, Димок? ag
[Профиль]  [ЛС] 

sklyaruk79

Штурман

Пост 27-Апр-2016 22:26 (спустя 42 минуты)

[Q] 

билан?!!писец просто
Не качайте!
[Профиль]  [ЛС] 

viji

Корсар

Пост 28-Апр-2016 01:42 (спустя 3 часа)

[Q] 

Фильм так себе ) Несмотря, что снят в Париже, но сценарий невнятный и вообще режиссура отстой, сумбурно и не затягивает.
[Профиль]  [ЛС] 

Пост 31-Май-2016 14:25 (спустя 1 месяц 3 дня)

Топик был перенесен из форума Новинки (HD|DVD|BD| TV|SAT|PDTV| - Rips) в форум Российские фильмы
aleksey99
 

Ziapa

Лоцман

Пост 07-Июн-2016 00:49 (спустя 1 месяц 8 дней)

[Q] 

герой-жопа с дырой...
[Профиль]  [ЛС] 

jofrei53

Корсар

Пост 10-Июл-2016 13:33 (спустя 1 месяц 3 дня)

[Q] 

Спасибо! Интересно будет посмотреть....Что там "намутили" с участием Билана... Спасибо!!! Автору респект!!!
[Профиль]  [ЛС] 
Показать сообщения:    
Ответить на тему

Текущее время: Сегодня 20:17

Часовой пояс: GMT + 4



Вы не можете начинать темы
Вы не можете отвечать на сообщения
Вы не можете редактировать свои сообщения
Вы не можете удалять свои сообщения
Вы не можете голосовать в опросах
Вы не можете прикреплять файлы к сообщениям
Вы не можете скачивать файлы

▼ Вниз