ML
     
  Уважаемый Гость!
Вы можете поддержать проект и зарегистрироваться у наших партнеров - онлайн-стратегия MyLands. При регистрации в игре Вы получите код, который сможете активировать после регистрации на pirat.ca и получить 1000 дублонов.

Ваш код:
21acd5966619d49ad0b90c3305467b4646cc11a8
 
     

Контрибуция (Сергей Снежкин) [2016 г., история, детектив, WEB-DLRip] Original (RUS)

Ответить на тему
 
Автор
Сообщение

Пост 25-Апр-2016 08:33

[Q] 

aleksey99

--Контрибуция-- Производство: Россия, Ленфильм
Год выпуска: 2016 г.
Жанр: история, детектив
Продолжительность: 02:42:15--Российская премьера: 17 марта 2016, «Ленфильм»--Режиссер: Сергей Снежкин--В ролях: Максим Матвеев, Елизавета Боярская, Надежда Толубеева, Илья Носков, Евгений Дятлов, Константин Воробьёв, Артур Ваха, Юрий Ицков, Игорь Черневич, Сергей Перегудов--Описание: Действие «Контрибуции» происходит в 1918 году в Перми. Среднесибирский белогвардейский корпус под командованием молодого генерала Анатолия Николаевича Пепеляева захватывает город. Армия измотана, не хватает патронов, обмундирования, провианта. Генерал приглашает пермских купцов с целью собрать деньги для нужд армии. Богатая вдова Чагина приносит в качестве контрибуции дорогой бриллиант. На следующий день бриллиант таинственным образом исчезает. На поиски привлекают приговоренного к смерти «красного» следователя Андрея Мурзина, который должен найти бриллиант в обмен на помилование.-- --Качество видео: WEB-DLRip
Контейнер: AVI
Видео кодек: XviD
Аудио кодек: AC3
Видео: 720x304 (2.37:1), 25 fps, XviD build 50 ~1723 kbps avg, 0.32 bit/pixel
Аудио: 48 kHz, AC3 Dolby Digital, 2/0 (L,R) ch, ~192 kbps
Cубтитры: отсутствуют
Общее
Полное имя : H:\Torrent2\Kontribucija.2016.XviD.WEB-DLRip.avi
Формат : AVI
Формат/Информация : Audio Video Interleave
Профиль формата : OpenDML
Размер файла : 2,18 Гбайт
Продолжительность : 2 ч. 42 м.
Общий поток : 1927 Кбит/сек
Программа кодирования : VirtualDubMod 1.5.10.2 (build 2540/release)
Библиотека кодирования : VirtualDubMod build 2540/release
Видео
Идентификатор : 0
Формат : MPEG-4 Visual
Профиль формата : Advanced [email protected]
Параметр BVOP формата : 1
Параметр QPel формата : Нет
Параметр GMC формата : Без точки перехода
Параметр матрицы формата : Выборочная
Идентификатор кодека : XVID
Идентификатор кодека/Подсказка : XviD
Продолжительность : 2 ч. 42 м.
Битрейт : 1723 Кбит/сек
Ширина : 720 пикселей
Высота : 304 пикселя
Соотношение сторон : 2,35:1
Частота кадров : 25,000 кадров/сек
Цветовое пространство : YUV
Субдискретизация насыщенности : 4:2:0
Битовая глубина : 8 бит
Тип развёртки : Прогрессивная
Метод сжатия : С потерями
Бит/(Пиксели*Кадры) : 0.315
Размер потока : 1,95 Гбайт (89%)
Библиотека кодирования : XviD 1.2.1 (UTC 2008-12-04)
Аудио
Идентификатор : 1
Формат : AC-3
Формат/Информация : Audio Coding 3
Расширение режима : CM (complete main)
Параметр Endianness формата : Big
Идентификатор кодека : 2000
Продолжительность : 2 ч. 42 м.
Вид битрейта : Постоянный
Битрейт : 192 Кбит/сек
Каналы : 2 канала
Расположение каналов : Front: L R
Частота : 48,0 КГц
Битовая глубина : 16 бит
Метод сжатия : С потерями
Размер потока : 223 Мбайт (10%)
Выравнивание : Разделение по промежуткам
Продолжительность промежутка : 40 мс. (1,00 видеокадр)
Время предзагрузки промежутка : 500 мс.
Трейлер
Download / Скачать

Хотите скачать бесплатно? Зарегистрируйтесь на сайте (ссылка на регистрацию). Pirat.ca - самый быстрый торрент трекер в рунете!

Как скачивать  ·   Что такое торрент  ·   Рейтинг и ограничения

viji

Корсар

Пост 25-Апр-2016 11:23 (спустя 2 часа 49 минут)

[Q] 

И хоть бы один фильм о белогвардейщине оказался не дохлой кошкой. Возьмите хотя бы фильм АдмиралЪ, пустышка еще та. Но посмотрю...
[Профиль]  [ЛС] 

tuareg

Шкипер

Пост 29-Апр-2016 00:30 (спустя 3 дня)

[Q] 

А ведь мне понравился - истинная школа Ленфильма!
[Профиль]  [ЛС] 

ТАЛИ

Корсар

Пост 01-Май-2016 01:56 (спустя 2 дня 1 час)

[Q] 

Это какое-то трехчасовое мучение, которое почему-то хотелось досмотреть до конца, без перемотки. Хотя сам детективный сюжет укладывается в пять минут. Все остальное - некрасивая, кровавая, безнадежная изнанка белого движения. Это вроде как и не основное, но фильм пронизан уже ставшей обыденной жестокостью. Расстрелять десять штук латышей, десять штук китайцев - ерунда какая, правда? Некогда любимую девушку приказать расстрелять просто так, для стимуляции мозговой активности и чтоб заставить поунижаться бывшего друга...? И это главный герой фильма - белый офицер...А кто поручится, что такого свинства не было?
Короче, это не исторический детектив. Это историческая копрофилия. Извините. Фильм не то, чем хочет казаться и этим хорош. Но лучше б я его не смотрела...
[Профиль]  [ЛС] 

Пост 31-Май-2016 14:33 (спустя 30 дней)

Топик был перенесен из форума Новинки (HD|DVD|BD| TV|SAT|PDTV| - Rips) в форум Российские фильмы
aleksey99
 

Alex270

Шкипер

Пост 09-Июн-2016 07:32 (спустя 1 месяц 8 дней)

[Q] 

Ужасно затянутый и временами отвратительный фильм. Сюжет и завязка интересная,но растянуть на часа действие происходящее в одной комнате-это уже перебор. С середины фильма появляется чувство что сценарист и режиссёр просто чушь высасывать из пальца что бы продолжить сюжет. Актёры великолепные и игра отличная,но сценарий полный бред и ещё на 3 часа.
И вообще мне показалось это телеспектакль,как раньше в советское время показывали.
[Профиль]  [ЛС] 
Показать сообщения:    
Ответить на тему

Текущее время: Сегодня 23:19

Часовой пояс: GMT + 4



Вы не можете начинать темы
Вы не можете отвечать на сообщения
Вы не можете редактировать свои сообщения
Вы не можете удалять свои сообщения
Вы не можете голосовать в опросах
Вы не можете прикреплять файлы к сообщениям
Вы не можете скачивать файлы

▼ Вниз