ML
     
  Уважаемый Гость!
Вы можете поддержать проект и зарегистрироваться у наших партнеров - онлайн-стратегия MyLands. При регистрации в игре Вы получите код, который сможете активировать после регистрации на pirat.ca и получить 1000 дублонов.

Ваш код:
59354507ba913a0948d1a8f2e30f2e04c4cd7b9b
 
     

Помню – не помню! (Василий Ровенский) [2016 г., комедия, WEB-DLRip] Original (RUS) [iTunes]

Ответить на тему
 
Автор
Сообщение

Пост 28-Апр-2016 08:07

[Q] 

aleksey99

--Помню – не помню!--«Почувствуй себя в чужом теле!-- Производство: Россия, Кинофирма
Год выпуска: 2016 г.
Жанр: комедия
Продолжительность: 01:15:30--Мировая премьера: 8 апреля 2016
Российская премьера: 31 марта 2016, «Наше Кино»--Режиссер: Василий Ровенский--В ролях: Наталия Медведева, Полина Максимова, Константин Крюков, Людмила Артемьева, Анна Ардова, Александр Демидов, Сергей Бадюк, Вадим Демчог, Анна Хилькевич, Дмитрий Хрусталёв--Описание: Живет себе на свете скромная девушка Алена, работает в библиотеке и мечтает сыграть Джульетту в самодеятельном театре. Она и представить себе не может, что буквально завтра ее жизнь кардинально изменится. Столкнувшись на улице с шикарной блондинкой, она теряет сознание и… приходит в себя в больнице… в чужом теле.-- --Качество видео: WEB-DLRip
Контейнер: AVI
Видео кодек: XviD
Аудио кодек: AC3
Видео: 720x304 (2.37:1), 24 fps, XviD build 50 ~2195 kbps avg, 0.42 bit/pixel
Аудио: 48 kHz, AC3 Dolby Digital, 3/2 (L,C,R,l,r) + LFE ch, ~384 kbps
Cубтитры: отсутствуют
Общее
Полное имя : D:\Torrent 2\P0mH1y.He.P0mH1y.2016.O.WEB-DLRip.1400MB.avi
Формат : AVI
Формат/Информация : Audio Video Interleave
Размер файла : 1,37 Гбайт
Продолжительность : 1 ч. 15 м.
Общий поток : 2589 Кбит/сек
Программа кодирования : VirtualDubMod 1.5.10.3 | www.virtualdub-fr.org || (build 2550/release)
Библиотека кодирования : VirtualDubMod build 2550/release
Видео
Идентификатор : 0
Формат : MPEG-4 Visual
Профиль формата : Advanced [email protected]
Параметр BVOP формата : 2
Параметр QPel формата : Нет
Параметр GMC формата : Без точки перехода
Параметр матрицы формата : Default (MPEG)
Идентификатор кодека : XVID
Идентификатор кодека/Подсказка : XviD
Продолжительность : 1 ч. 15 м.
Битрейт : 2196 Кбит/сек
Ширина : 720 пикселей
Высота : 304 пикселя
Соотношение сторон : 2,35:1
Частота кадров : 24,000 кадра/сек
Цветовое пространство : YUV
Субдискретизация насыщенности : 4:2:0
Битовая глубина : 8 бит
Тип развёртки : Прогрессивная
Метод сжатия : С потерями
Бит/(Пиксели*Кадры) : 0.418
Размер потока : 1,16 Гбайт (85%)
Библиотека кодирования : XviD 1.2.1 (UTC 2008-12-04)
Аудио
Идентификатор : 1
Формат : AC-3
Формат/Информация : Audio Coding 3
Расширение режима : CM (complete main)
Параметр Endianness формата : Big
Идентификатор кодека : 2000
Продолжительность : 1 ч. 15 м.
Вид битрейта : Постоянный
Битрейт : 384 Кбит/сек
Каналы : 6 каналов
Расположение каналов : Front: L C R, Side: L R, LFE
Частота : 48,0 КГц
Метод сжатия : С потерями
Размер потока : 207 Мбайт (15%)
Выравнивание : Разделение по промежуткам
Продолжительность промежутка : 42 мс. (1,00 видеокадр)
Время предзагрузки промежутка : 500 мс.
Трейлер
Download / Скачать

Хотите скачать бесплатно? Зарегистрируйтесь на сайте (ссылка на регистрацию). Pirat.ca - самый быстрый торрент трекер в рунете!

Как скачивать  ·   Что такое торрент  ·   Рейтинг и ограничения

Gorbunkoff

Шкипер

Пост 28-Апр-2016 09:25 (спустя 1 час 18 минут)

[Q] 

приходит в себя в больнице… в чужом теле.
на большее у российского синематографа ума не хватает... Раздающему респект!
[Профиль]  [ЛС] 

smartpeople

Шкипер

Пост 28-Апр-2016 10:43 (спустя 1 час 17 минут)

[Q] 

полный пипец....бла что у режессера сбылась мечта идиота.......типа а я лучше...........режессера на мыло
[Профиль]  [ЛС] 

meshkov65

Лоцман

Пост 28-Апр-2016 15:31 (спустя 4 часа)

[Q] 

ешкин кот - ну сколько же можно мусолить эту тему !!!...
[Профиль]  [ЛС] 

Амангельды

35490

Пост 28-Апр-2016 18:40 (спустя 3 часа)

[Q] 

Наташка Медведева до чего хороша!!!

_________________

Товарищ, верь, пройдет она,
Так называемая гласность.
И вот тогда госбезопасность
Припомнит ваши имена
Раздачи от Амангельды - ТЫНЦ
[Профиль]  [ЛС] 

Роман1412

Морской Волк

Пост 28-Апр-2016 22:14 (спустя 3 часа)

[Q] 

посмотрю только из за Медведевой
[Профиль]  [ЛС] 

smartpeople

Шкипер

Пост 28-Апр-2016 22:15 (спустя 1 минута)

[Q] 

еле досмотрел..2+ и то с натяжкой.
[Профиль]  [ЛС] 

ТАЛИ

Корсар

Пост 28-Апр-2016 23:59 (спустя 1 час 43 минуты)

[Q] 

Может под настроение попало, а может и правда фильм отличный:) Ну, в своем жанре, разумеется (если есть жанр про обмен телами). Фильмец яркий, сочный, ненапряжный до такой степени, что мозги прям реально отдохнули:) И Медведева тут хороша и к месту, но главное открытие - блондиночка, очень хорошо и легко играет, а мужчинам она прям вообще должна понравиться, весна же все-таки :)
[Профиль]  [ЛС] 

Blazer88

Лоцман

Пост 30-Апр-2016 23:18 (спустя 1 день 23 часа)

[Q] 

скачал и через 10 минут просмотра удалил навсегда!
[Профиль]  [ЛС] 

Xanarim

Морской Волк

Пост 01-Май-2016 05:38 (спустя 6 часов)

[Q] 

Из-за Натахи с Полей скачаю. Будет дрянь, отпишусь! Автору спасибо !COOL!
[Профиль]  [ЛС] 

Пост 31-Май-2016 14:34 (спустя 30 дней)

Топик был перенесен из форума Фильмы 2010 - 2015 г.г. в форум Российские фильмы
aleksey99
 
Показать сообщения:    
Ответить на тему

Текущее время: Сегодня 16:06

Часовой пояс: GMT + 4



Вы не можете начинать темы
Вы не можете отвечать на сообщения
Вы не можете редактировать свои сообщения
Вы не можете удалять свои сообщения
Вы не можете голосовать в опросах
Вы не можете прикреплять файлы к сообщениям
Вы не можете скачивать файлы

▼ Вниз