Уважаемый Гость!
Вы можете поддержать проект и зарегистрироваться у наших партнеров - онлайн-стратегия MyLands. При регистрации в игре Вы получите код, который сможете активировать после регистрации на pirat.ca и получить 1000 дублонов.

Ваш код:
88751c4adf86fcce7f0f5e41a4919296b96d7a10
 
     

Коробка (Эдуард Бордуков) [2016 г., драма, спорт, комедия, WEB-DLRip] Original (RUS) [iTunes]

Ответить на тему
 
Автор
Сообщение

Пост 29-Апр-2016 07:38

[Q] 

aleksey99

--Коробка--«Твой двор. Твои правила»-- Производство: Россия, Кинокомпания «Телесто»
Год выпуска: 2016 г.
Жанр: драма, спорт, комедия
Продолжительность: 01:36:09--Российская премьера: 7 апреля 2016, «25th Floor Film»--Режиссер: Эдуард Бордуков--В ролях: Сергей Романович, Сергей Подольный, Кирилл Дегтярь, Георгий Соскин, Степан Тавризян, Сослан Засеев, Руслан Нигматулин, Ульви Вердиев, Стася Милославская, Евгения Дмитриева--Описание: «Костя, Серж, Мел и Танцор — лучшие друзья. Они молоды и увлечены уличным футболом. Самый крутой из них Костя. Его девушка Настя считает, что он должен попробовать себя в профессиональной футбольной команде, но для Кости уличный футбол — это его жизнь, а футбольная коробка — второй дом, где играют только друзья, только свои.
Однажды команда Кости сталкивается на коробке с чужой компанией во главе с Дамиром, профессиональным футболистом. Не желая делить коробку, они устраивают жесткий бескомпромиссный турнир, в который постепенно втягиваются все жители района. Ставки растут, и на кону уже не только коробка. На кону дружба и любовь. И пути назад нет. Теперь это не просто игра, это война!»-- --Качество видео: WEB-DLRip
Контейнер: AVI
Видео кодек: XviD
Аудио кодек: AC3
Видео: 720x400 (1.80:1), 25 fps, XviD build 50 ~1781 kbps avg, 0.25 bit/pixel
Аудио: 48 kHz, AC3 Dolby Digital, 3/2 (L,C,R,l,r) + LFE ch, ~384 kbps
Cубтитры: отсутствуют
Общее
Полное имя : H:\Torrent2\K0P06K4.2016.O.WEB-DLRip.avi
Формат : AVI
Формат/Информация : Audio Video Interleave
Размер файла : 1,46 Гбайт
Продолжительность : 1 ч. 36 м.
Общий поток : 2176 Кбит/сек
Программа кодирования : VirtualDubMod 1.5.10.3 | www.virtualdub-fr.org || (build 2550/release)
Библиотека кодирования : VirtualDubMod build 2550/release
Видео
Идентификатор : 0
Формат : MPEG-4 Visual
Профиль формата : Advanced [email protected]
Параметр BVOP формата : 2
Параметр QPel формата : Нет
Параметр GMC формата : Без точки перехода
Параметр матрицы формата : Default (MPEG)
Идентификатор кодека : XVID
Идентификатор кодека/Подсказка : XviD
Продолжительность : 1 ч. 36 м.
Битрейт : 1782 Кбит/сек
Ширина : 720 пикселей
Высота : 400 пикселей
Соотношение сторон : 16:9
Частота кадров : 25,000 кадров/сек
Цветовое пространство : YUV
Субдискретизация насыщенности : 4:2:0
Битовая глубина : 8 бит
Тип развёртки : Прогрессивная
Метод сжатия : С потерями
Бит/(Пиксели*Кадры) : 0.247
Размер потока : 1,20 Гбайт (82%)
Библиотека кодирования : XviD 1.2.1 (UTC 2008-12-04)
Аудио
Идентификатор : 1
Формат : AC-3
Формат/Информация : Audio Coding 3
Расширение режима : CM (complete main)
Параметр Endianness формата : Big
Идентификатор кодека : 2000
Продолжительность : 1 ч. 36 м.
Вид битрейта : Постоянный
Битрейт : 384 Кбит/сек
Каналы : 6 каналов
Расположение каналов : Front: L C R, Side: L R, LFE
Частота : 48,0 КГц
Битовая глубина : 16 бит
Метод сжатия : С потерями
Размер потока : 264 Мбайт (18%)
Выравнивание : Разделение по промежуткам
Продолжительность промежутка : 40 мс. (1,00 видеокадр)
Время предзагрузки промежутка : 500 мс.
Трейлер
Download / Скачать

Хотите скачать бесплатно? Зарегистрируйтесь на сайте (ссылка на регистрацию). Pirat.ca - самый быстрый торрент трекер в рунете!

Как скачивать  ·   Что такое торрент  ·   Рейтинг и ограничения

realyu

Корсар

Пост 29-Апр-2016 11:21 (спустя 3 часа)

[Q] 

удалено, дабы у Курочки (ник такой) пукан не разрывало


Последний раз редактировалось: realyu (2017-08-05 02:07), всего редактировалось 1 раз
[Профиль]  [ЛС] 

MaK1auD

Шкипер

Пост 29-Апр-2016 11:28 (спустя 7 минут)

[Q] 

Редкостное говно этот фильм... Посмотрел минут 30 выключил - не смог я этот шлак смотреть даже на промотке..
[Профиль]  [ЛС] 

topstas73

Лоцман

Пост 29-Апр-2016 23:19 (спустя 11 часов)

[Q] 

фильм полный кал.
[Профиль]  [ЛС] 

Kir_18

Штурман

Пост 30-Апр-2016 01:57 (спустя 2 часа 37 минут)

[Q] 

классный фильм! не слушайте! качайте и смотрите!
[Профиль]  [ЛС] 

damhsn

Шкипер

Пост 05-Май-2016 21:54 (спустя 5 дней)

[Q] 

фильм для детей подростков
[Профиль]  [ЛС] 

south-travels

Шкипер

Пост 05-Май-2016 22:32 (спустя 37 минут)

[Q] 

фильм - полная шляпа.
[Профиль]  [ЛС] 

RozM

Корсар

Пост 06-Май-2016 17:44 (спустя 19 часов)

[Q] 

realyu, спасибо за развернутый комментарий. Сохранил время и нервы остальным.
[Профиль]  [ЛС] 

madman88

Шкипер

Пост 07-Май-2016 02:07 (спустя 8 часов)

[Q] 

бочку рома первому комментатору Лови бочку

_________________
Я - часть той силы, что вечно хочет зла и вечно совершает благо.©
[Профиль]  [ЛС] 

Пост 31-Май-2016 14:35 (спустя 24 дня)

Топик был перенесен из форума Новинки (HD|DVD|BD| TV|SAT|PDTV| - Rips) в форум Российские фильмы
aleksey99
 
Показать сообщения:    
Ответить на тему

Текущее время: Сегодня 02:19

Часовой пояс: GMT + 4



Вы не можете начинать темы
Вы не можете отвечать на сообщения
Вы не можете редактировать свои сообщения
Вы не можете удалять свои сообщения
Вы не можете голосовать в опросах
Вы не можете прикреплять файлы к сообщениям
Вы не можете скачивать файлы

▼ Вниз