ML
     
  Уважаемый Гость!
Вы можете поддержать проект и зарегистрироваться у наших партнеров - онлайн-стратегия MyLands. При регистрации в игре Вы получите код, который сможете активировать после регистрации на pirat.ca и получить 1000 дублонов.

Ваш код:
bc31d8aef74c92e19ad67e34a8fa63c3b9b812fb
 
     

Маршрут построен (Олег Асадулин) [2016 г., ужасы, триллер, WEB-DLRip] Original (RUS)

Ответить на тему
 
Автор
Сообщение

Пост 04-Май-2016 08:20

[Q] 

aleksey99

--Маршрут построен-- Производство: Россия, Ультра Стори
Год выпуска: 2016 г.
Жанр: ужасы, триллер
Продолжительность: 01:21:45--Российская премьера: 31 марта 2016, «Двадцатый Век Фокс СНГ»--Режиссер: Олег Асадулин--В ролях: Светлана Устинова, Павел Чинарёв, Виталия Корниенко, Кристина Шаповалова, Сергей Сафронов, Илья Сафронов, Андрей Сафронов, Диана Мелисон, Александр Цёма--Описание: Прошлой весной произошло страшное преступление — в результате ссоры муж убил жену, расчленил труп и спрятал в багажнике их автомобиля. Несмотря на попытки отвести от себя подозрение, убийца вскоре был арестован полицией. Андрей и Оля — семейная пара. Андрей покупает подозрительно дешевый автомобиль в хорошем состоянии. Тем же вечером, взяв свою пятилетнюю дочь, они отправляются в ночную поездку в другой город. В дороге Оля слышит какие-то странные звуки и говорит Андрею, что чувствует — с машиной что-то не то. Это вызывает раздражение Андрея, который ничего этого не замечает, и становится поводом для конфликта. Тем временем их дочка на заднем сидении общается с какой-то невидимой тетей, но родители не слышат. Призрак убитой женщины не любит семейных ссор, и наши герои в ее власти… Их маршрут уже построен.-- --Качество видео: WEB-DLRip
Контейнер: AVI
Видео кодек: XviD
Аудио кодек: AC3
Видео: 720x304 (2.37:1), 25 fps, XviD build 50 ~1936 kbps avg, 0.35 bit/pixel
Аудио: 44.1 kHz, AC3 Dolby Digital, 2/0 (L,R) ch, ~448 kbps
Cубтитры: отсутствуют
Общее
Полное имя : D:\Torrent 2\MaPWPut.p0CtP0eH.2O15.O.WEB-DLRip.1400MB.avi
Формат : AVI
Формат/Информация : Audio Video Interleave
Размер файла : 1,37 Гбайт
Продолжительность : 1 ч. 21 м.
Общий поток : 2394 Кбит/сек
Название фильма : MaPWPut.p0CtP0eH.2O15.O.WEB-DLRip.1400MB
Программа кодирования : VirtualDubMod 1.5.10.2 (build 2540/release)
Формат оригинала/Имя : Movie
Видео
Идентификатор : 0
Формат : MPEG-4 Visual
Профиль формата : Advanced [email protected]
Параметр BVOP формата : 2
Параметр QPel формата : Нет
Параметр GMC формата : Без точки перехода
Параметр матрицы формата : Выборочная
Идентификатор кодека : XVID
Идентификатор кодека/Подсказка : XviD
Продолжительность : 1 ч. 21 м.
Битрейт : 1937 Кбит/сек
Ширина : 720 пикселей
Высота : 304 пикселя
Соотношение сторон : 2,35:1
Частота кадров : 25,000 кадров/сек
Цветовое пространство : YUV
Субдискретизация насыщенности : 4:2:0
Битовая глубина : 8 бит
Тип развёртки : Прогрессивная
Метод сжатия : С потерями
Бит/(Пиксели*Кадры) : 0.354
Размер потока : 1,11 Гбайт (81%)
Библиотека кодирования : XviD 1.2.1 (UTC 2008-12-04)
Аудио
Идентификатор : 1
Формат : AC-3
Формат/Информация : Audio Coding 3
Расширение режима : CM (complete main)
Параметр Endianness формата : Big
Идентификатор кодека : 2000
Продолжительность : 1 ч. 21 м.
Вид битрейта : Постоянный
Битрейт : 448 Кбит/сек
Каналы : 2 канала
Расположение каналов : Front: L R
Частота : 44,1 КГц
Метод сжатия : С потерями
Размер потока : 262 Мбайт (19%)
Выравнивание : Разделение по промежуткам
Продолжительность промежутка : 40 мс. (1,00 видеокадр)
Время предзагрузки промежутка : 500 мс.
Трейлер
Download / Скачать

Хотите скачать бесплатно? Зарегистрируйтесь на сайте (ссылка на регистрацию). Pirat.ca - самый быстрый торрент трекер в рунете!

Как скачивать  ·   Что такое торрент  ·   Рейтинг и ограничения

TrojanSS

Морской Волк

Пост 04-Май-2016 09:30 (спустя 1 час 10 минут)

[Q] 

Хороший фильм, стоит посмотреть Лови бочку
[Профиль]  [ЛС] 

igorexa1111

Корсар

Пост 04-Май-2016 11:10 (спустя 1 час 39 минут)

[Q] 

да видел я эту дрянь...
[Профиль]  [ЛС] 

MycR

Шкипер

Пост 04-Май-2016 11:45 (спустя 35 минут)

[Q] 

Посмотрим! Лови бочку
[Профиль]  [ЛС] 

cruzzel

Корсар

Пост 05-Май-2016 07:22 (спустя 19 часов)

[Q] 

Ой как стыдно-то... Фильм отстойный! Трафик потрачен зря!

_________________
NEWSLOL.NET
[Профиль]  [ЛС] 

rst-76

Морской Волк

Пост 07-Май-2016 23:48 (спустя 2 дня 16 часов)

[Q] 

Удивлен, но для отечественного кинематографа очень даже неплохо... ay Спасибо!!!
[Профиль]  [ЛС] 

klas14

Корсар

Пост 08-Май-2016 20:17 (спустя 20 часов)

[Q] 

Спасибо!!! Лови бочку нормально получилось !

_________________
[Профиль]  [ЛС] 

Alex270

Шкипер

Пост 09-Май-2016 07:03 (спустя 10 часов)

[Q] 

Так себе.Большие сюжетный дыры и совершенно глупое поведение героев.И дешёвая компьютерная графика.Призрака могли бы уж сделать по убедительнее. И что особенно расстроило это опять присутствие БМВ Х5!!! Видно не кто из остальных автопроизводителей не хочет вкладыватся в наше кино. А уж реклама крупными буквами тех кто вложился в эти недоужасы вызывает неудержимый смех.Жаль.Ждал этот фильм.Еле дотянул до конца.
[Профиль]  [ЛС] 

ntvsx

Шкипер

Пост 21-Май-2016 13:43 (спустя 12 дней)

[Q] 

Фильм на троечку. Слабенькую.
[Профиль]  [ЛС] 

Barmeno

Шкипер

Пост 21-Май-2016 18:52 (спустя 5 часов)

[Q] 

отстойный фильм, не тратьте время..
[Профиль]  [ЛС] 

ktnk

Штурман

Пост 28-Май-2016 12:13 (спустя 6 дней)

[Q] 

Фильм вполне смотрибельный только скорее интересный,чем страшный)
[Профиль]  [ЛС] 

Leha_34

Шкипер

Пост 23-Окт-2016 20:35 (спустя 4 месяца 26 дней)

[Q] 

Фильм не страшный даже наоборот ad
[Профиль]  [ЛС] 
Показать сообщения:    
Ответить на тему

Текущее время: Сегодня 12:00

Часовой пояс: GMT + 4



Вы не можете начинать темы
Вы не можете отвечать на сообщения
Вы не можете редактировать свои сообщения
Вы не можете удалять свои сообщения
Вы не можете голосовать в опросах
Вы не можете прикреплять файлы к сообщениям
Вы не можете скачивать файлы

▼ Вниз