ML
     
  Уважаемый Гость!
Вы можете поддержать проект и зарегистрироваться у наших партнеров - онлайн-стратегия MyLands. При регистрации в игре Вы получите код, который сможете активировать после регистрации на pirat.ca и получить 1000 дублонов.

Ваш код:
aec9a4a936117fb450ba69e519991a0465404b1d
 
     

Слуга государев (Олег Рясков) [2007 г., боевик, приключения, военный, история, BDRip] [международная версия]

Ответить на тему
 
Автор
Сообщение

Пост 08-Май-2016 22:05

[Q] 

somik

Легенда

-Слуга государев / международная версия-- Производство: Россия, Beta Film TV...
Режиссер: Олег Рясков
Жанр: боевик, приключения, военный, история
Год выпуска: 2007 г.
Продолжительность: 01:56:57
Российская премьера: 22 февраля 2007, «Каскад»
В ролях: Дмитрий Миллер, Александр Бухаров, Ксения Князева, Валерий Маликов, Дарья Семенова, Алексей Чадов, Николай Чиндяйкин, Андрей Сухов, Дмитрий Шиляев, Ольга Арнтгольц, Владислав Демченко, Эдуард Флёров, Елена Плаксина, Андрей Рыклин, Родион Юрин, Евгений Меньшов, Анастасия Зайцева, Александр Рапопорт, Никита Емшанов, Дмитрий Орлов-Описание: 1709 год. Европу раздирают междоусобные войны. Францией все еще правит стареющий Людовик XIV, а подвиги мушкетеров еще не забыты. В Версале два французских дворянина, поссорившись из-за карточной игры, нарушают существующий запрет на дуэли и оказываются между тюрьмой и плахой палача. Милостью короля казнь заменена ссылкой «на пользу государства».
Один из них должен отправиться на службу ко двору российского царя Петра Первого, другой — ко двору шведского короля Карла XII, чтобы шпионить в пользу Франции. Россия и Швеция находятся в состоянии войны, и герои должны прибыть к местам назначения как раз накануне Полтавской битвы. Однако оказывается, что ссылка — всего лишь предлог и на самом деле им уготовано место в первых рядах сражающихся друг против друга армий. Чтобы спасти любимого, подруга одного из героев решается на отчаянный шаг…
В России тем временем ползут слухи о мистическом черном всаднике, якобы причастном к исчезновению людей… Проведенное расследование подтверждает, что загадочные появления мистического всадника — правда. Все герои встретятся при самых неожиданных обстоятельствах, пережив немало опасных приключений. Но чем закончится эта встреча? Ведь они до сих пор считают дело чести неоконченным…-Сэмпл КиноПоиск
Качество видео: BDRip
Контейнер: AVI
Видео кодек: DivX
Аудио кодек: MP3
Видео: 640x272 (2.35:1), 25 fps, DivX Codec 6.8.5/6.9.1 ~753 kbps avg, 0.17 bit/pixel
Аудио: 48 kHz, MPEG Layer 3, 2 ch, ~128.00 kbps avg
Cубтитры: отсутствуют
«Слуга государев» — российский фильм плаща и шпаги 2007 года. Фильм снят за 100 дней, написание сценария и подготовка составила 2,5 года. Режиссёр Олег Рясков.
Фильм был выпущен в более чем 20 странах, включая: Бразилию, Испанию, Италию, Германию, Нидерланды, Швецию, Францию, Китай, Индию, Турцию, ОАЭ, Австралию и ряд других.
В фильме снимался фрегат «Штандарт» — историческая копия русского фрегата времен Петра I.
Прототипами принца Филиппа и графа де Гиша, как ни странно, были не Филипп I Орлеанский и Арман де Грамон, граф де Гиш, которых связывали тесные отношения, но которые ко времени действия фильма (1709 год) уже умерли. В фильме показаны Филипп II Орлеанский (35 лет в 1709 году) и Антуан V де Грамон, герцог де Гиш (37 лет в 1709 году). Филипп II был сыном Филиппа I, и после смерти Людовика XIV стал регентом Франции. Герцог де Гиш принимал участие во всех военных кампаниях Людовика XIV, начиная с 1688 г., и в 1724 году стал маршалом Франции.
Кинонаграды «MTV-Россия», 2008 год
Номинации (1):
Лучшая драка — «Русские бабы, выскочив из чащи в косынках и платьях, закалывают рогатинами группу вооруженных шведских солдат»
Прекрасный фильм! Очень красивый, интересный и достойный! Достойный войти в историю российского кинематографа и стоять на одном уровне с такими фильмами, как «Сибирский цирюльник»!
Смотрела на одном дыхании, буквально глотая каждое мгновение сцены. Картинка, декорации, пейзажи, костюмы, актёры и режиссёрская работа на высоте! Бухаров в роли Гришки Воронова просто неотразим, очень харизматичный и обаятельный герой, смотришь на него и просто влюбляешься! Бухаров поражает своей игрой, это действительно достойный актёр, сыграл героя почти полностью противоположного Волкодаву. Молодец!
И французик просто «золотце»! Фильм отличный, обязательно войдёт в мою коллекцию фильмов!
10 из 10
Формат : AVI
Формат/Информация : Audio Video Interleave
Размер файла : 745 Мбайт
Продолжительность : 1 ч. 56 м.
Общий поток : 891 Кбит/сек
Название фильма : Sluga Gosudarev.[pirat.ca]
Программа кодирования : VirtualDubModRus 1.5.10.2 (build 2540/release)
Видео
Идентификатор : 0
Формат : MPEG-4 Visual
Параметр BVOP формата : 3
Параметр QPel формата : Нет
Параметр GMC формата : Без точки перехода
Параметр матрицы формата : Выборочная
Режим смешивания : Сжатый битовый поток
Идентификатор кодека : DX50
Идентификатор кодека/Подсказка : DivX 5
Продолжительность : 1 ч. 56 м.
Битрейт : 753 Кбит/сек
Ширина : 640 пикселей
Высота : 272 пикселя
Соотношение сторон : 2,35:1
Частота кадров : 25,000 кадров/сек
Цветовое пространство : YUV
Субдискретизация насыщенности : 4:2:0
Битовая глубина : 8 бит
Тип развёртки : Прогрессивная
Метод сжатия : С потерями
Бит/(Пиксели*Кадры) : 0.173
Размер потока : 630 Мбайт (85%)
Библиотека кодирования : DivX 6.8.5 (UTC 2009-08-20)
Аудио
Идентификатор : 1
Формат : MPEG Audio
Версия формата : Version 1
Профиль формата : Layer 3
Режим : Joint stereo
Расширение режима : MS Stereo
Идентификатор кодека : 55
Идентификатор кодека/Подсказка : MP3
Продолжительность : 1 ч. 56 м.
Вид битрейта : Постоянный
Битрейт : 128 Кбит/сек
Каналы : 2 канала
Частота : 48,0 КГц
Метод сжатия : С потерями
Размер потока : 107 Мбайт (14%)
Выравнивание : Разделение по промежуткам
Продолжительность промежутка : 40 мс. (1,00 видеокадр)
Время предзагрузки промежутка : 500 мс.
Download / Скачать

Хотите скачать бесплатно? Зарегистрируйтесь на сайте (ссылка на регистрацию). Pirat.ca - самый быстрый торрент трекер в рунете!

Как скачивать  ·   Что такое торрент  ·   Рейтинг и ограничения

Пост 08-Май-2016 23:00 (спустя 54 минуты)

Топик был перенесен из форума Наше кино (Трюм) в форум Российские фильмы
kugesan
 
Показать сообщения:    
Ответить на тему

Текущее время: Сегодня 02:24

Часовой пояс: GMT + 4



Вы не можете начинать темы
Вы не можете отвечать на сообщения
Вы не можете редактировать свои сообщения
Вы не можете удалять свои сообщения
Вы не можете голосовать в опросах
Вы не можете прикреплять файлы к сообщениям
Вы не можете скачивать файлы

▼ Вниз