ML
     
  Уважаемый Гость!
Вы можете поддержать проект и зарегистрироваться у наших партнеров - онлайн-стратегия MyLands. При регистрации в игре Вы получите код, который сможете активировать после регистрации на pirat.ca и получить 1000 дублонов.

Ваш код:
2a3da67fd641d69eeebb7cb965232435a70eaa24
 
     

Медвежий поцелуй / Bear's Kiss (Сергей Бодров) [2002 г., фэнтези, драма, мелодрама, DVDRip]

Ответить на тему
 
Автор
Сообщение

Пост 21-Май-2016 04:34

[Q] 

somik

Легенда

-Медвежий поцелуй / Bear's Kiss-- Производство: Германия, Швеция, Россия, Испания, Франция, Италия, Alia Film, arte France Cinéma, Boje Buck Produktion GmbH, Film i Väst, Кинокомпания CTB, ...
Год выпуска: 2002 г.
Жанр: фэнтези, драма, мелодрама
Продолжительность: 01:34:12
Мировая премьера: 3 сентября 2002
Российская премьера: 28 ноября 2002, «Интерсинема-Арт»
Дата выхода DVD: 30 августа 2007, «Союз-Видео»
Режиссер: Сергей Бодров-В ролях: Ребека Лильеберг, Йоахим Круль, Сергей Бодров мл., Кит Аллен, Маурицио Донадони, Анн-Мари Пизани, Марсела Муссо, Ариадна Хиль, Сильвио Орландо, Юрий Александров-Описание: Маленького медвежонка, родившегося в сибирской тайге, охотники сдали в питерский зоопарк. Международной цирковой труппе, выступавшей в Санкт-Петербурге, понадобились дикие звери, и воздушная гимнастка Кармен вместе с мужем и дочкой Лолой пришла в зоопарк. Кармен никого там не выбрала, а Лола увидела одинокого медвежонка и влюбилась в него.
Кармен вскоре, устав от тягот кочевой жизни, сбежала из труппы, на прощание рассказав Лоле, что хоть и любит девочку как дочь, но матерью ей не является. Лола осталась с циркачами, а вместе с ней — и медвежонок, получивший русское имя Миша. Он переезжал в цирковом фургоне из страны в страну (Россия, Швеция, Германия, Испания…) и становился все крупнее и крепче. А однажды Лола проснулась и увидела в клетке не медведя, а молодого парня, который признался, что он и есть тот самый Миша…-
Качество видео: DVDRip
Контейнер: AVI
Видео кодек: XviD
Аудио кодек: MP3
Видео: 640x352 (1.82:1), 25 fps, XviD build 65 ~977 kbps avg, 0.17 bit/pixel
Аудио: 48 kHz, MPEG Layer 3, 2 ch, ~128.00 kbps avg
Cубтитры: отсутствуют
Рецензии
Сценарий никак не может выбрать между коммерчески зрелищным проектом и философической притчей. Коммерция требует яркой картинки, её обеспечивает цирк вкупе с путешествием по странам Европы. Притча апеллирует к мысли и самоуглубленности, но мысль, заявленная едва ли не с начала, никуда не движется. Остаются два любящих существа, беззащитных перед жестокостью окружающего мира, несмотря на всю мощь медвежьих когтей. А это остановленное мгновение для живописного полотна, но не сюжет для кинематографической картины[1]
— Валерий Кичин, обозреватель «Российской газеты»
Съёмки
Сценарий «Медвежьего поцелуя» лежал у Бодрова (старшего) почти десять лет.
Сначала на роль медведей Бодров (старший) решил пригласить актёров из Чехии. Но у актёров оказался такой скандальный характер, что работать с живыми медведями показалось проще. И режиссёр пригласил дрессировщика Юрия Александрова из Московского цирка на проспекте Вернадского.
Для съёмок выбрали трех медведей-подростков и маленького медвежонка.
Серёжа медведей спокойно гладил. И медведям он нравился. Но в кадре они не встречались. Мишки работали с Ребеккой, но чувствовали, что актриса их боится, и недолюбливали её…[2]
— Юрий Александров (дрессировщик медведей).
У Бодрова (младшего) и Ребекки Лильеберг из-за напряжённости долго не получалось сыграть любовную сцену. Для того чтобы расслабиться Ребекка выпила две бутылки вина[3].
Это последняя завершённая роль в кино Сергея Бодрова (младшего), погибшего на съёмках своего второго фильма «Связной». Выход фильма «Медвежий поцелуй» в прокат состоялся уже после его гибели. Сергей Бодров (старший) после трагедии не хотел выпускать картину в прокат, но после долгих раздумий всё же решил дать фильму «жизнь».
Венецианский кинофестиваль, 2002 год
Номинации (1):
Золотой лев
Каждый фильм с режиссурой и/или участием Бодровых — абсолютно искреннее произведение. И я думаю, что именно таких фильмов не хватает кинематографу.
А этот фильм — вообще сказка, которая будет интересна зрителю любого возраста. Речь ведь идет о любви, а она существует всегда. К тому же, здесь и волшебство, и борьба с несправедливостью и злом, приключения.
Безумно порадовала игра Ребеки Лильеберг, все черты героини прекрасно переданы. В ее характере спокойствие, мудрость, преданность, смелость. Ну а к исполнению Бодрова-младшего вообще слова можно не побирать. Как и всегда — вошел в роль, исполнил свою «миссию». Спасибо ему за все, что он успел для нас, для зрителей, сделать.
Итого по баллу:
за режиссуру, за игру Бодрова, Ребеки Лильеберг, всех остальных актеров, за зрелищность, за динамичность, за красивую сказку, за урок доброты, за декорации и пейзажи, за искренность.
10 из 10
Формат : AVI
Формат/Информация : Audio Video Interleave
Размер файла : 751 Мбайт
Продолжительность : 1 ч. 34 м.
Общий поток : 1115 Кбит/сек
Название фильма : Medveziy poceluy.[pirat.ca]
Программа кодирования : VirtualDubModRus 1.5.10.2 (build 2540/release)
Видео
Идентификатор : 0
Формат : MPEG-4 Visual
Профиль формата : Advanced [email protected]
Параметр BVOP формата : 1
Параметр QPel формата : Нет
Параметр GMC формата : Без точки перехода
Параметр матрицы формата : Выборочная
Идентификатор кодека : XVID
Идентификатор кодека/Подсказка : XviD
Продолжительность : 1 ч. 34 м.
Битрейт : 977 Кбит/сек
Ширина : 640 пикселей
Высота : 352 пикселя
Соотношение сторон : 16:9
Частота кадров : 25,000 кадров/сек
Цветовое пространство : YUV
Субдискретизация насыщенности : 4:2:0
Битовая глубина : 8 бит
Тип развёртки : Прогрессивная
Метод сжатия : С потерями
Бит/(Пиксели*Кадры) : 0.174
Размер потока : 659 Мбайт (88%)
Библиотека кодирования : XviD 65
Аудио
Идентификатор : 1
Формат : MPEG Audio
Версия формата : Version 1
Профиль формата : Layer 3
Режим : Joint stereo
Расширение режима : MS Stereo
Идентификатор кодека : 55
Идентификатор кодека/Подсказка : MP3
Продолжительность : 1 ч. 34 м.
Вид битрейта : Постоянный
Битрейт : 128 Кбит/сек
Каналы : 2 канала
Частота : 48,0 КГц
Метод сжатия : С потерями
Размер потока : 86,3 Мбайт (11%)
Выравнивание : Разделение по промежуткам
Продолжительность промежутка : 40 мс. (1,00 видеокадр)
Время предзагрузки промежутка : 500 мс.
Download / Скачать

Хотите скачать бесплатно? Зарегистрируйтесь на сайте (ссылка на регистрацию). Pirat.ca - самый быстрый торрент трекер в рунете!

Как скачивать  ·   Что такое торрент  ·   Рейтинг и ограничения

Пост 21-Май-2016 09:57 (спустя 5 часов)

Топик был перенесен из форума Зарубежное Кино (Трюм) в форум Российские фильмы
aleksey99
 
Показать сообщения:    
Ответить на тему

Текущее время: Сегодня 01:18

Часовой пояс: GMT + 4



Вы не можете начинать темы
Вы не можете отвечать на сообщения
Вы не можете редактировать свои сообщения
Вы не можете удалять свои сообщения
Вы не можете голосовать в опросах
Вы не можете прикреплять файлы к сообщениям
Вы не можете скачивать файлы

▼ Вниз