ML
     
  Уважаемый Гость!
Вы можете поддержать проект и зарегистрироваться у наших партнеров - онлайн-стратегия MyLands. При регистрации в игре Вы получите код, который сможете активировать после регистрации на pirat.ca и получить 1000 дублонов.

Ваш код:
4399ab8611ee7f8a22949d2ee7634160dd2db7e0
 
     

Побег за мечтой (Константин Тищенко, Юрий Сысоев, Владимир Мистюков) [2015 г., криминал, драма, WEB-DLRip-AVC] Original (RUS)

Ответить на тему
 
Автор
Сообщение

Пост 22-Май-2016 12:03

[Q] 

aleksey99

--Побег за мечтой-- Производство: Россия, Молодёжные инициативы
Год выпуска: 2015 г.
Жанр: криминал, драма
Продолжительность: 01:15:46--Российская премьера: 4 февраля 2016, «Молодёжные инициативы»--Режиссер: Константин Тищенко, Юрий Сысоев, Владимир Мистюков--В ролях: Владимир Вдовиченков, Мирослава Карпович, Андрей Чадов, Денис Косяков, Антон Буглак, Александр Кононец, Прохор Чеховской, Александр Фурсенко, Зоя Кайдановская, Алексей Фатеев--Описание: Три истории о трех разных мужчинах. Молодой писатель без книги, но со смертью под боком. Врач с принципиальной позицией и непониманием среди окружающих. И адвокат, считающий, что от всего можно откупиться. Всех троих испытает судьба, и ни один из них не останется прежним…-- --Качество видео: WEB-DLRip-AVC
Контейнер: MKV
Видео кодек: H.264
Аудио кодек: AC3
Видео: AVC at 1901 Кбит/сек, 1024x550 at 25.000 fps
Аудио: 48 kHz, AC3 2 ch, 384 Кбит/с
Cубтитры: отсутствуют
Общее
Уникальный идентификатор : 251073227584640386903893170936485320335 (0xBCE2F1D96D488F70A6BD648DA7E5168F)
Полное имя : H:\Torrent2\Za.mechtoy.2015.O.WEB-DLRip.AVC.mkv
Формат : Matroska
Версия формата : Version 4 / Version 2
Размер файла : 1,21 Гбайт
Продолжительность : 1 ч. 15 м.
Общий поток : 2286 Кбит/сек
Дата кодирования : UTC 2016-05-22 07:55:12
Программа кодирования : mkvmerge v9.0.1 ('Obstacles') 64bit
Библиотека кодирования : libebml v1.3.3 + libmatroska v1.4.4
Видео
Идентификатор : 1
Формат : AVC
Формат/Информация : Advanced Video Codec
Профиль формата : [email protected]
Параметр CABAC формата : Да
Параметр ReFrames формата : 12 кадров
Идентификатор кодека : V_MPEG4/ISO/AVC
Продолжительность : 1 ч. 15 м.
Битрейт : 1901 Кбит/сек
Ширина : 1024 пикселя
Высота : 550 пикселей
Соотношение сторон : 1,85:1
Режим частоты кадров : Постоянный
Частота кадров : 25,000 кадров/сек
Цветовое пространство : YUV
Субдискретизация насыщенности : 4:2:0
Битовая глубина : 8 бит
Тип развёртки : Прогрессивная
Бит/(Пиксели*Кадры) : 0.135
Размер потока : 1,01 Гбайт (83%)
Заголовок : Enigma
Библиотека кодирования : x264 core 142 r2431 ac76440
Настройки программы : cabac=1 / ref=12 / deblock=1:-2:-2 / analyse=0x3:0x113 / me=umh / subme=10 / psy=1 / psy_rd=1.05:0.15 / mixed_ref=1 / me_range=32 / chroma_me=1 / trellis=2 / 8x8dct=1 / cqm=0 / deadzone=21,11 / fast_pskip=0 / chroma_qp_offset=-3 / threads=12 / lookahead_threads=3 / sliced_threads=0 / nr=0 / decimate=0 / interlaced=0 / bluray_compat=0 / constrained_intra=0 / bframes=10 / b_pyramid=2 / b_adapt=2 / b_bias=0 / direct=3 / weightb=1 / open_gop=0 / weightp=2 / keyint=250 / keyint_min=25 / scenecut=40 / intra_refresh=0 / rc_lookahead=40 / rc=2pass / mbtree=0 / bitrate=1901 / ratetol=1.0 / qcomp=0.60 / qpmin=0 / qpmax=51 / qpstep=4 / cplxblur=20.0 / qblur=0.5 / vbv_maxrate=50000 / vbv_bufsize=62500 / nal_hrd=none / filler=0 / ip_ratio=1.40 / pb_ratio=1.30 / aq=1:1.00
Default : Да
Forced : Нет
Цветовой диапазон : Limited
Основные цвета : BT.709
Характеристики трансфера : BT.709
Коэффициенты матрицы : BT.709
Аудио
Идентификатор : 2
Формат : AC-3
Формат/Информация : Audio Coding 3
Расширение режима : CM (complete main)
Параметр Endianness формата : Big
Идентификатор кодека : A_AC3
Продолжительность : 1 ч. 15 м.
Вид битрейта : Постоянный
Битрейт : 384 Кбит/сек
Каналы : 2 канала
Расположение каналов : Front: L R
Частота : 48,0 КГц
Частота кадров : 31,250 кадров/сек (1536 spf)
Метод сжатия : С потерями
Размер потока : 208 Мбайт (17%)
Язык : Russian
Default : Да
Forced : Нет
Трейлер
Download / Скачать

Хотите скачать бесплатно? Зарегистрируйтесь на сайте (ссылка на регистрацию). Pirat.ca - самый быстрый торрент трекер в рунете!

Как скачивать  ·   Что такое торрент  ·   Рейтинг и ограничения

Innesa

Шкипер

Пост 23-Май-2016 19:26 (спустя 1 день 7 часов)

[Q] 

Владимир Вдовиченков, Мирослава Карпович, Андрей Чадов. Название тяготит, описание убивает, коментов ноль, качать не буду, ТАКИЕ фильмы убивают своей сук@ идеологией, идеи нет, ее просто нет и быть не может, зачем переводить деньги на такое кино, снимите *реп* продолжение ВИНИ-ПУХа в 3D в версии сюжета с Красной шапочкой - XXX в переводе "гоблина" + DEN904 со Шнуром и Волочковой в главной роли. Классика Русского жанра, без обид автору Спасибо!!!
[Профиль]  [ЛС] 

Aurums

Корсар

Пост 23-Май-2016 22:56 (спустя 3 часа)

[Q] 

752283Владимир Вдовиченков, Мирослава Карпович, Андрей Чадов. Название тяготит, описание убивает, коментов ноль, качать не буду, ТАКИЕ фильмы убивают своей сук@ идеологией, идеи нет, ее просто нет и быть не может, зачем переводить деньги на такое кино, снимите *реп* продолжение ВИНИ-ПУХа в 3D в версии сюжета с Красной шапочкой - XXX в переводе "гоблина" + DEN904 со Шнуром и Волочковой в главной роли. Классика Русского жанра, без обид автору Спасибо!!!
Если не смотрела нахрена обсирать?)) Что за тупая мораль: если это... или с ними... значит гомно. Чушь! Посмотри, потом Комментируй! ( дорогая Innesa смотрите XXX в переводе "гоблина" + DEN904 со Шнуром и Волочковой в главной роли. это ваше))
[Профиль]  [ЛС] 

Johni12367

Морской Волк

Пост 24-Май-2016 05:15 (спустя 6 часов)

[Q] 

согласен 100% с предыдущим сообщением.
[Профиль]  [ЛС] 

Skala973

Корсар

Пост 24-Май-2016 16:41 (спустя 11 часов)

[Q] 

Нет, фильм нормальный. Зря его хаят.
Первая часть может быть слегонца затянута. Но там и ставки максимальные.
Вторая и третья часть... Ну это уже другая тема.
Хотя, с третьей частью, тут конечно же интересный такой вариант предлагается. Любопытный.
Но к слову говоря, по третьей части:
откупится, тут и к бабке не ходи. Но разумеется, в этой жизни откупится. А уж как дальше... Вот может быть к этому фильм подводит. Дескать что в этой жизни ты откупишься, а в той? В той жизни другой спрос будет. Про подобное хорошо в фильме "Рекетир" рассуждал один из ГГ, который за убийство отсидел и потом в религию ударился.
А вообще, посмотреть обязательно можно. Неплохой фильм.
[Профиль]  [ЛС] 

raul kurochka

Корсар

Пост 24-Май-2016 23:54 (спустя 7 часов)

[Q] 

752283Владимир Вдовиченков, Мирослава Карпович, Андрей Чадов. Название тяготит, описание убивает, коментов ноль, качать не буду, ТАКИЕ фильмы убивают своей сук@ идеологией, идеи нет, ее просто нет и быть не может, зачем переводить деньги на такое кино, снимите *реп* продолжение ВИНИ-ПУХа в 3D в версии сюжета с Красной шапочкой - XXX в переводе "гоблина" + DEN904 со Шнуром и Волочковой в главной роли. Классика Русского жанра, без обид автору Спасибо!!!
Сногсшибательная идеология! Просто уникальнейшая))))) И где таких "Инес" берут? Не в род.доме ТОЧНО!)))

_________________
...ЧО ТАКОЙ СЕРЬЕЗНЫЙ???
[Профиль]  [ЛС] 

Stalker_29

Корсар

Пост 25-Май-2016 19:24 (спустя 19 часов)

[Q] 

а я просто качну и посмотрю, спасибо автору за раздачу!
[Профиль]  [ЛС] 

co6aka 6e3 yxa

Морской Волк

Пост 26-Май-2016 20:07 (спустя 1 день)

[Q] 

А че инесса не качала...и не смотрела??? а зачем тут поносить зря..вот щас смотрю..пока норм..потом отпишусь

_________________
А незнакомок мы целуем робко
[Профиль]  [ЛС] 

Лерычъ

Лоцман

Пост 26-Май-2016 20:42 (спустя 34 минуты)

[Q] 

200% ТП, наверное, предел мечтаний - это "первый мститель" со смазливым личиком полупи...а и все это в ХХХ))) Зуб даю...
[Профиль]  [ЛС] 

SB

Лоцман

Пост 02-Июн-2016 06:59 (спустя 6 дней)

[Q] 

Отличный фильм без розовых соплей. Спасибо!!! Всем качать!!!
[Профиль]  [ЛС] 

Innesa

Шкипер

Пост 06-Июн-2016 19:52 (спустя 4 дня)

[Q] 

ххх ребята не для каждого зрителя до 12 лет, я бы на вашем месте зат.....
[Профиль]  [ЛС] 

Пост 24-Июн-2016 22:00 (спустя 18 дней)

Топик был перенесен из форума Новинки (HD|DVD|BD| TV|SAT|PDTV| - Rips) в форум Российские фильмы
aleksey99
 

ТАЛИ

Корсар

Пост 19-Окт-2016 01:22 (спустя 4 месяца 12 дней)

[Q] 

На Инессу тут наехали, возможно и заслуженно, если она фильм не смотрела. А вдруг смотрела? Может у нее психологическая травма приключилась. Особенно первая история тяжеловата. И в то же время - она самая слабая. Впрочем и остальные не блещут. Как части какого-нибудь хардкор-сериала - вполне годно смотрятся, но не как фильм. Но если не придираться, то глянуть можно. И даже попереживать....
[Профиль]  [ЛС] 
Показать сообщения:    
Ответить на тему

Текущее время: Сегодня 10:46

Часовой пояс: GMT + 4



Вы не можете начинать темы
Вы не можете отвечать на сообщения
Вы не можете редактировать свои сообщения
Вы не можете удалять свои сообщения
Вы не можете голосовать в опросах
Вы не можете прикреплять файлы к сообщениям
Вы не можете скачивать файлы

▼ Вниз