ML
     
  Уважаемый Гость!
Вы можете поддержать проект и зарегистрироваться у наших партнеров - онлайн-стратегия MyLands. При регистрации в игре Вы получите код, который сможете активировать после регистрации на pirat.ca и получить 1000 дублонов.

Ваш код:
ef8b3e8cd07bec918273586d22e5aaf18e0ae925
 
     

Экипаж (Николай Лебедев) [2016 г., драма, приключения, триллер, BDRip] Original (RUS)[Лицензия]

Ответить на тему
 
Автор
Сообщение

Пост 31-Май-2016 07:08

[Q] 

aleksey99

--Экипаж-- Производство: Россия, Студия Тритэ
Год выпуска: 2016 г.
Жанр: драма, приключения, триллер
Продолжительность: 02:17:10--Российская премьера: 21 апреля 2016, «Централ Партнершип»--Режиссер: Николай Лебедев--В ролях: Данила Козловский, Владимир Машков, Агне Грудите, Катерина Шпица, Сергей Газаров, Елена Яковлева, Сергей Шакуров, Вера Иванова, Татьяна Новик, Ян Гэ, Анастасия Чинякина, Наталья Кондратьева, Даниил Солдатов, Александр Цёма, Ольга Нелюбова, Рахиб Вердиев, Надежда Звенигородская, Сергей Кемпо, Андрей Касницкий--Описание: История талантливого молодого летчика Алексея Гущина. Он не признает авторитетов, предпочитая поступать в соответствии с личным кодексом чести. За невыполнение абсурдного приказа его выгоняют из военной авиации, и только чудом он получает шанс летать на гражданских самолетах.
Гущин начинает свою летную жизнь сначала. Его наставник — командир воздушного судна — суровый и принципиальный Леонид Зинченко. Его коллега — второй пилот, неприступная красавица Александра. Отношения складываются непросто. Но на грани жизни и смерти, когда земля уходит из-под ног, вокруг — огонь и пепел и только в небе есть спасение, Гущин показывает все, на что он способен. Только вместе экипаж сможет совершить подвиг и спасти сотни жизней.-- --Качество видео: BDRip
Контейнер: AVI
Видео кодек: XviD
Аудио кодек: AC3
Видео: 720x304 (2.37:1), 24 fps, XviD build 50 ~1817 kbps avg, 0.35 bit/pixel
Аудио: 48 kHz, AC3 Dolby Digital, 3/2 (L,C,R,l,r) + LFE ch, ~448 kbps
Cубтитры: отсутствуют
Общее
Полное имя : H:\Torrent2\EkipaGG.2O16.O.BDRip.2.18GB.avi
Формат : AVI
Формат/Информация : Audio Video Interleave
Профиль формата : OpenDML
Размер файла : 2,18 Гбайт
Продолжительность : 2 ч. 17 м.
Общий поток : 2277 Кбит/сек
Программа кодирования : VirtualDubMod 1.5.10.2 (build 2540/release)
Библиотека кодирования : VirtualDubMod build 2540/release
Видео
Идентификатор : 0
Формат : MPEG-4 Visual
Профиль формата : Advanced [email protected]
Параметр BVOP формата : 2
Параметр QPel формата : Нет
Параметр GMC формата : Без точки перехода
Параметр матрицы формата : Выборочная
Идентификатор кодека : XVID
Идентификатор кодека/Подсказка : XviD
Продолжительность : 2 ч. 17 м.
Битрейт : 1817 Кбит/сек
Ширина : 720 пикселей
Высота : 304 пикселя
Соотношение сторон : 2,35:1
Частота кадров : 24,000 кадра/сек
Цветовое пространство : YUV
Субдискретизация насыщенности : 4:2:0
Битовая глубина : 8 бит
Тип развёртки : Прогрессивная
Метод сжатия : С потерями
Бит/(Пиксели*Кадры) : 0.346
Размер потока : 1,74 Гбайт (80%)
Библиотека кодирования : XviD 1.2.1 (UTC 2008-12-04)
Аудио
Идентификатор : 1
Формат : AC-3
Формат/Информация : Audio Coding 3
Расширение режима : CM (complete main)
Параметр Endianness формата : Big
Идентификатор кодека : 2000
Продолжительность : 2 ч. 17 м.
Вид битрейта : Постоянный
Битрейт : 448 Кбит/сек
Каналы : 6 каналов
Расположение каналов : Front: L C R, Side: L R, LFE
Частота : 48,0 КГц
Частота кадров : 31,250 кадров/сек (1536 spf)
Метод сжатия : С потерями
Размер потока : 440 Мбайт (20%)
Выравнивание : Разделение по промежуткам
Продолжительность промежутка : 42 мс. (1,00 видеокадр)
Время предзагрузки промежутка : 500 мс.
Трейлер
Download / Скачать

Хотите скачать бесплатно? Зарегистрируйтесь на сайте (ссылка на регистрацию). Pirat.ca - самый быстрый торрент трекер в рунете!

Как скачивать  ·   Что такое торрент  ·   Рейтинг и ограничения

VooL

Штурман

Пост 31-Май-2016 07:57 (спустя 48 минут)

[Q] 

джойказино есть ?) Всем качать!!!

_________________
Водку не обещаю, но погуляем на славу (с) Иван Сусанин
[Профиль]  [ЛС] 

infiniti-r

Корсар

Пост 31-Май-2016 14:42 (спустя 6 часов)

[Q] 

Бесит эта реклама гребанного казино джойказино!!!!
[Профиль]  [ЛС] 

aleksey99 ®

282579

Пост 31-Май-2016 15:08 (спустя 26 минут)

[Q] 

753404джойказино есть ?) Всем качать!!!
753494Бесит эта реклама гребанного казино джойказино!!!!
тут нет рекламы.

_________________

[Профиль]  [ЛС] 

vespasian

Штурман

Пост 02-Июн-2016 19:42 (спустя 2 дня 4 часа)

[Q] 

Рекламы нет. Фильм один раз посмотреть можно. 6,5 баллов из 10 моя оценка. Если сравнивать с "Экипажем" снятым в СССР, то новый фильм проигрывает во всём, включая спецэффекты.
[Профиль]  [ЛС] 

янка-сан

Гроза морей

Пост 05-Июн-2016 01:59 (спустя 2 дня 6 часов)

[Q] 

!COOL! Спасибо!!! .......
[Профиль]  [ЛС] 

dima1976

Штурман

Пост 05-Июн-2016 16:02 (спустя 14 часов)

[Q] 

Спасибо!!! Супер! ,,,,,,,,,,,,,,,,,,
[Профиль]  [ЛС] 

RnD

Морской Волк

Пост 05-Июн-2016 21:54 (спустя 5 часов)

[Q] 

"Все новое - хорошо забытое старое..." (Народная мудрость). Релизеру - респект !
[Профиль]  [ЛС] 

Пост 08-Июл-2016 20:15 (спустя 1 месяц 2 дня)

Топик был перенесен из форума Новинки (HD|DVD|BD| TV|SAT|PDTV| - Rips) в форум Российские фильмы
aleksey99
 
Показать сообщения:    
Ответить на тему

Текущее время: Сегодня 18:41

Часовой пояс: GMT + 4



Вы не можете начинать темы
Вы не можете отвечать на сообщения
Вы не можете редактировать свои сообщения
Вы не можете удалять свои сообщения
Вы не можете голосовать в опросах
Вы не можете прикреплять файлы к сообщениям
Вы не можете скачивать файлы

▼ Вниз