ML
     
  Уважаемый Гость!
Вы можете поддержать проект и зарегистрироваться у наших партнеров - онлайн-стратегия MyLands. При регистрации в игре Вы получите код, который сможете активировать после регистрации на pirat.ca и получить 1000 дублонов.

Ваш код:
ef8b3e8cd07bec918273586d22e5aaf18e0ae925
 
     

Экипаж (Николай Лебедев) [2016 г., драма, приключения, триллер, BDRip] Original (RUS)[Лицензия]

Ответить на тему
 
Автор
Сообщение

Пост 31-Май-2016 07:56

[Q] 

aleksey99

--Экипаж-- Производство: Россия, Студия Тритэ
Год выпуска: 2016 г.
Жанр: драма, приключения, триллер
Продолжительность: 02:17:10--Российская премьера: 21 апреля 2016, «Централ Партнершип»--Режиссер: Николай Лебедев--В ролях: Данила Козловский, Владимир Машков, Агне Грудите, Катерина Шпица, Сергей Газаров, Елена Яковлева, Сергей Шакуров, Вера Иванова, Татьяна Новик, Ян Гэ, Анастасия Чинякина, Наталья Кондратьева, Даниил Солдатов, Александр Цёма, Ольга Нелюбова, Рахиб Вердиев, Надежда Звенигородская, Сергей Кемпо, Андрей Касницкий--Описание: История талантливого молодого летчика Алексея Гущина. Он не признает авторитетов, предпочитая поступать в соответствии с личным кодексом чести. За невыполнение абсурдного приказа его выгоняют из военной авиации, и только чудом он получает шанс летать на гражданских самолетах.
Гущин начинает свою летную жизнь сначала. Его наставник — командир воздушного судна — суровый и принципиальный Леонид Зинченко. Его коллега — второй пилот, неприступная красавица Александра. Отношения складываются непросто. Но на грани жизни и смерти, когда земля уходит из-под ног, вокруг — огонь и пепел и только в небе есть спасение, Гущин показывает все, на что он способен. Только вместе экипаж сможет совершить подвиг и спасти сотни жизней.-- --Качество видео: BDRip
Контейнер: AVI
Видео кодек: XviD
Аудио кодек: AC3
Видео: 720x304 (2.37:1), 24 fps, XviD build 50 ~1066 kbps avg, 0.20 bit/pixel
Аудио: 48 kHz, AC3 Dolby Digital, 3/2 (L,C,R,l,r) + LFE ch, ~448 kbps
Cубтитры: отсутствуют
Общее
Полное имя : H:\Torrent2\EkipaGG.2O16.O.BDRip.1.46GB.avi
Формат : AVI
Формат/Информация : Audio Video Interleave
Размер файла : 1,46 Гбайт
Продолжительность : 2 ч. 17 м.
Общий поток : 1524 Кбит/сек
Программа кодирования : VirtualDubMod 1.5.10.2 (build 2540/release)
Библиотека кодирования : VirtualDubMod build 2540/release
Видео
Идентификатор : 0
Формат : MPEG-4 Visual
Профиль формата : Advanced [email protected]
Параметр BVOP формата : 2
Параметр QPel формата : Нет
Параметр GMC формата : Без точки перехода
Параметр матрицы формата : Выборочная
Идентификатор кодека : XVID
Идентификатор кодека/Подсказка : XviD
Продолжительность : 2 ч. 17 м.
Битрейт : 1066 Кбит/сек
Ширина : 720 пикселей
Высота : 304 пикселя
Соотношение сторон : 2,35:1
Частота кадров : 24,000 кадра/сек
Цветовое пространство : YUV
Субдискретизация насыщенности : 4:2:0
Битовая глубина : 8 бит
Тип развёртки : Прогрессивная
Метод сжатия : С потерями
Бит/(Пиксели*Кадры) : 0.203
Размер потока : 1,02 Гбайт (70%)
Библиотека кодирования : XviD 1.2.1 (UTC 2008-12-04)
Аудио
Идентификатор : 1
Формат : AC-3
Формат/Информация : Audio Coding 3
Расширение режима : CM (complete main)
Параметр Endianness формата : Big
Идентификатор кодека : 2000
Продолжительность : 2 ч. 17 м.
Вид битрейта : Постоянный
Битрейт : 448 Кбит/сек
Каналы : 6 каналов
Расположение каналов : Front: L C R, Side: L R, LFE
Частота : 48,0 КГц
Частота кадров : 31,250 кадров/сек (1536 spf)
Метод сжатия : С потерями
Размер потока : 440 Мбайт (29%)
Выравнивание : Разделение по промежуткам
Продолжительность промежутка : 42 мс. (1,00 видеокадр)
Время предзагрузки промежутка : 500 мс.
Трейлер
Download / Скачать

Хотите скачать бесплатно? Зарегистрируйтесь на сайте (ссылка на регистрацию). Pirat.ca - самый быстрый торрент трекер в рунете!

Как скачивать  ·   Что такое торрент  ·   Рейтинг и ограничения

GoodLife

Лоцман

Пост 31-Май-2016 10:14 (спустя 2 часа 18 минут)

[Q] 

А мне очень даже понравился ! Спасибо!!! Супер!
[Профиль]  [ЛС] 

DDoS55

Флибустьер

2252

Пост 31-Май-2016 12:13 (спустя 1 час 58 минут)

[Q] 

Одобрямс! Спасибо!!!

_________________
включайте в торрент клиенте: DHT, обмен пирами, шифрование, ip-фильтр
[Профиль]  [ЛС] 

Perspekt

Шкипер

Пост 31-Май-2016 18:32 (спустя 6 часов)

[Q] 

Спасибо!!! Всем качать!!!

_________________
[Профиль]  [ЛС] 

Timbol

Лоцман

Пост 31-Май-2016 20:47 (спустя 2 часа 14 минут)

[Q] 

Перевод хороший?
[Профиль]  [ЛС] 

Perspekt

Шкипер

Пост 31-Май-2016 21:02 (спустя 14 минут)

[Q] 

753558Перевод хороший?
Серьезно?!?!?!? Фильм Российского производства. Алло, у вас там все хорошо?

_________________
[Профиль]  [ЛС] 

aleksey99 ®

282579

Пост 31-Май-2016 21:20 (спустя 18 минут)

[Q] 

753558Перевод хороший?
Ну ты юморист...

_________________

[Профиль]  [ЛС] 

ss80

Флибустьер

36

Пост 31-Май-2016 22:00 (спустя 39 минут)

[Q] 

Спасибо!!! Супер!
[Профиль]  [ЛС] 

redfield

Шкипер

Пост 31-Май-2016 22:12 (спустя 11 минут)

[Q] 

по фильму дайте объективную рецензию, ремейк тупо или как все утверждали супер новое?
[Профиль]  [ЛС] 

welzegor

Штурман

Пост 31-Май-2016 22:31 (спустя 19 минут)

[Q] 

753575по фильму дайте объективную рецензию, ремейк тупо или как все утверждали супер новое?
вот
[Профиль]  [ЛС] 

Barskavkaz

Корсар

Пост 31-Май-2016 22:32 (спустя 47 секунд)

[Q] 

Спасибо, ждал)

_________________
Д.Тк
[Профиль]  [ЛС] 

maaximkaa

Корсар

Пост 01-Июн-2016 10:58 (спустя 12 часов)

[Q] 

о ждал, спасибо Одобрямс! Лови бочку
[Профиль]  [ЛС] 

goga13

Штурман

Пост 01-Июн-2016 14:25 (спустя 3 часа)

[Q] 

Отличный фильм. Несмотря местами на сказочность, напряжение присутствует.
[Профиль]  [ЛС] 

ds73

Шкипер

Пост 01-Июн-2016 22:19 (спустя 7 часов)

[Q] 

Супер! Лови бочку

_________________
[Профиль]  [ЛС] 

danilkin71

Матрос

Пост 01-Июн-2016 22:39 (спустя 19 минут)

[Q] 

чет не могу скачать ...
[Профиль]  [ЛС] 

Stormwave

Шкипер

Пост 01-Июн-2016 22:49 (спустя 10 минут)

[Q] 

Качественное кинцо! Все таки раз в год и у нашего кинематографа палка стреляет) советую к просмотру)
Хотя конечно то, что происходит в фильме - на грани фантастики)
[Профиль]  [ЛС] 

hevard

Гроза морей

2110

Пост 09-Июн-2016 02:31 (спустя 7 дней)

[Q] 

Посмотрели фильм "Экипаж"... Два часа драйва! Фильм получился добротным. Могут наши, если постараются. Улыбнула сцена с Яковлевой, героиней первого фильма.
Но не отпускает мысль - А кто убрал трап от второго самолета???

_________________
-Я старый пират и не знаю слов лицензионного соглашения...
[Профиль]  [ЛС] 

Пост 08-Июл-2016 20:16 (спустя 29 дней)

Топик был перенесен из форума Новинки (HD|DVD|BD| TV|SAT|PDTV| - Rips) в форум Российские фильмы
aleksey99
 

valeryz777

Гроза морей

896

Пост 18-Июл-2016 05:20 (спустя 1 месяц 9 дней)

[Q] 

754655Посмотрели фильм "Экипаж"... Два часа драйва! Фильм получился добротным. Могут наши, если постараются. Улыбнула сцена с Яковлевой, героиней первого фильма.
Но не отпускает мысль - А кто убрал трап от второго самолета???
Мысли совпались! Много сказки, но смотрел с удовольствием! aleksey99, спасибо за труды! Автору респект!!!

_________________
«Festina lente» что означает «Поспешай медленно»
[Профиль]  [ЛС] 
Показать сообщения:    
Ответить на тему

Текущее время: Сегодня 18:36

Часовой пояс: GMT + 4



Вы не можете начинать темы
Вы не можете отвечать на сообщения
Вы не можете редактировать свои сообщения
Вы не можете удалять свои сообщения
Вы не можете голосовать в опросах
Вы не можете прикреплять файлы к сообщениям
Вы не можете скачивать файлы

▼ Вниз