ML
     
  Уважаемый Гость!
Вы можете поддержать проект и зарегистрироваться у наших партнеров - онлайн-стратегия MyLands. При регистрации в игре Вы получите код, который сможете активировать после регистрации на pirat.ca и получить 1000 дублонов.

Ваш код:
bb0cb47ee786a33f751af5a500dd264c9487bfac
 
     

Душа шпиона (Владимир Бортко) [2015 г., драма, детектив, HD TVRIP-AVC]

Ответить на тему
 
Автор
Сообщение

Пост 21-Июн-2016 16:03

[Q] 

somik

Легенда

-Душа шпиона-- Производство: Россия, Art4noise, Celtic Production Company, Fluid Company, Studio 2-B-2 entertainment, Студия Тритэ, Zak Productions
Режиссер: Владимир Бортко
Жанр: драма, детектив
Год выпуска: 2015 г.
Продолжительность: 01:44:52
Российская премьера: 8 октября 2015, «Ленфильм»
В ролях: Андрей Чернышов, Фёдор Бондарчук, Даниил Спиваковский, Марина Александрова, Малкольм МакДауэлл, Сандрин Боннэр, Лайэм Каннингхэм, Михаил Ефремов, Армен Джигарханян, Нина Гогаева, Кристина Бродская, Алексей Булдаков, Алексей Панин, Рудольф Фурманов, Ольга Дроздова, Мария Жиганова, Анна Екатерининская, Виталий Кривонос-Описание: Перед российским шпионом в Англии Алексом Уилки стоит задача проникнуть в американскую разведку и выявить крота — нашего разведчика, передающего врагу агентурные сведения. Герой вынужден преодолевать невероятные препятствия, чтобы войти в доверие к американцам…-Сэмпл КиноПоиск
Качество видео: HD TVRIP-AVC
Контейнер: MKV
Видео кодек: MPEG4 AVC
Аудио кодек: AAC
Видео: 4117 Кбит/с, 1280x720, 25,000 кадров/сек
Аудио: AAC, 2 ch, 192 Кбит/с, 48,0 КГц
Cубтитры: отсутствуют
IMDb: 6.80 (9)
Фильм снят по роману советского разведчика Михаила Любимова «И ад следовал за ним». События в романе-первоисточнике разворачиваются в 80-е годы, но режиссер перенес действие в современность, в 2011-й год, сильно переработав сюжет.
Хороший, но весьма тяжёлый психологически фильм. Начиналось всё во здравие, как в некоторых романах А. Маклина, но по сути вполне могло бы быть экранизацией романов Ч. Абдулаева.
Любопытно, что фильм вышел в широкий прокат очень небольшим числом копий, а прокатчиком пришлось выступить самой студии «Ленфильм». Рекламы этой картины я тоже нигде не втсречал.
Этот фильм рассказывает о офицерах внешней разведки нашей страны. Изношенный постоянным нервным напряжением главный герой (в блестящем исполнении Андрея Чернышова) должен выйти в Британии на след предателя, сливающего врагам информацию. В личной жизни у него давно уже полный крах, а внешняя материальная обеспеченность воспринимается чисто утилитарно. Старые идеалы давно уже треснули, новые же то ли есть, то ли нет… По ряду причин это «респектабельный бизнесмен» вынужден работать с завербованными ещё в советское время кадрами. И тут мы видим всё ещё просто блистательного Майкла МакДауэлла. Всё ещё хороша и Сандрин Боннэр.
Вообще, каст в этом фильме очень даже внушительный — тут и А. Джигарханян, и А. Булдаков, и Ф. Бондарчук, и М. Ефремов с О. Дроздовой… Все вместе они и разыгрывают некий спектакль, детективный по сути хоррор с дополнениями в виде мелодрамы.
В. Бортко попытался разом усидеть на двух стульях — снять шпионский триллер и одновременно «чисто русскую драму». Вероятно, был замах на своеобразный «наш кинооответ ихнему «Шпион, выйди вон».
И ведь у него почти что получилось. По крайне мере, блестящая актёрская игра основных исполнителей, красивые натурные съёмки и довольно неспешная интрига спасли этот фильм от провала именно что как детектив. Хотя уже ближе к финалу можно было правильно вычислить предателя по одной мелкой во всех смыслах детали… Но лучше шпионского детектива получилась драма о опустошённом, но сильном человеке, который должен выполнить своё задание. А чем придётся ему за это заплатить… Он ведь профессионал. знал, в какие страшные игры ему приходится играть ради безопасности своей страны. Если бы не смена локаций (Британия, Россия, Египет и т. д.), этот фильм порою так и тянуло бы назвать камерным.
Что ещё необходимо отметить. Странное чувство возникало порою во время просмотра этого фильма. Словно сняли его где-то на излёте 90-х. И тем интереснее и символичнее становится финал картины.
Резюме:
Довольно крепкая драма от отличного режиссёра старой школы. Посмотреть фильм однозначно стоит ценителям неспешных шпионских хорроров. Прекрасная актёрская игра, вселенский пессимизм (но не тотальный, однако !) и игра разведок.
Общее
Уникальный идентификатор : 225891308336333530487856101962122833575 (0xA9F1155F9CB537739EAC975B2354AEA7)
Полное имя : J:\Душа шпиона\Dusha shpiona.HDTVRip-AVC.[pirat.ca].mkv
Формат : Matroska
Версия формата : Version 2
Размер файла : 1,61 Гбайт
Продолжительность : 1 ч. 44 м.
Общий поток : 2192 Кбит/сек
Дата кодирования : UTC 2016-06-21 03:17:35
Программа кодирования : mkvmerge v6.1.0 ('Old Devil') built on Mar 4 2013 09:10:42
Библиотека кодирования : libebml v1.3.0 + libmatroska v1.4.0
Видео
Идентификатор : 1
Формат : AVC
Формат/Информация : Advanced Video Codec
Профиль формата : [email protected]
Параметр CABAC формата : Да
Параметр ReFrames формата : 9 кадров
Идентификатор кодека : V_MPEG4/ISO/AVC
Продолжительность : 1 ч. 44 м.
Битрейт : 2000 Кбит/сек
Ширина : 1024 пикселя
Высота : 552 пикселя
Соотношение сторон : 1,85:1
Режим частоты кадров : Постоянный
Частота кадров : 25,000 кадров/сек
Цветовое пространство : YUV
Субдискретизация насыщенности : 4:2:0
Битовая глубина : 8 бит
Тип развёртки : Прогрессивная
Бит/(Пиксели*Кадры) : 0.142
Размер потока : 1,43 Гбайт (89%)
Библиотека кодирования : x264 core 130 r2273 b3065e6
Настройки программы : cabac=1 / ref=9 / deblock=1:-2:-1 / analyse=0x3:0x113 / me=umh / subme=9 / psy=1 / psy_rd=1.00:0.15 / mixed_ref=1 / me_range=32 / chroma_me=1 / trellis=2 / 8x8dct=1 / cqm=0 / deadzone=21,11 / fast_pskip=0 / chroma_qp_offset=-3 / threads=6 / lookahead_threads=1 / sliced_threads=0 / nr=0 / decimate=0 / interlaced=0 / bluray_compat=0 / constrained_intra=0 / bframes=9 / b_pyramid=2 / b_adapt=2 / b_bias=0 / direct=3 / weightb=1 / open_gop=0 / weightp=2 / keyint=250 / keyint_min=25 / scenecut=40 / intra_refresh=0 / rc_lookahead=50 / rc=2pass / mbtree=1 / bitrate=2000 / ratetol=1.0 / qcomp=0.60 / qpmin=0 / qpmax=69 / qpstep=4 / cplxblur=20.0 / qblur=0.5 / vbv_maxrate=50000 / vbv_bufsize=50000 / nal_hrd=none / ip_ratio=1.40 / aq=2:1.00
Default : Да
Forced : Нет
Цветовой диапазон : Limited
Основные цвета : BT.709
Характеристики трансфера : BT.709
Коэффициенты матрицы : BT.709
Аудио
Идентификатор : 2
Формат : AC-3
Формат/Информация : Audio Coding 3
Расширение режима : CM (complete main)
Параметр Endianness формата : Big
Идентификатор кодека : A_AC3
Продолжительность : 1 ч. 44 м.
Вид битрейта : Постоянный
Битрейт : 192 Кбит/сек
Каналы : 2 канала
Расположение каналов : Front: L R
Частота : 48,0 КГц
Частота кадров : 31,250 кадров/сек (1536 spf)
Метод сжатия : С потерями
Размер потока : 144 Мбайт (9%)
Default : Да
Forced : Нет
Download / Скачать

Хотите скачать бесплатно? Зарегистрируйтесь на сайте (ссылка на регистрацию). Pirat.ca - самый быстрый торрент трекер в рунете!

Как скачивать  ·   Что такое торрент  ·   Рейтинг и ограничения

alersander

Морской Волк

Пост 22-Июн-2016 23:03 (спустя 1 день 7 часов)

[Q] 

Кто то смотрел?
[Профиль]  [ЛС] 

Саламон

Матрос

Пост 03-Июл-2016 18:48 (спустя 10 дней)

[Q] 

На вкус и цвет, фломастеры разные. Мне-понравился.
[Профиль]  [ЛС] 
Показать сообщения:    
Ответить на тему

Текущее время: Сегодня 02:17

Часовой пояс: GMT + 4



Вы не можете начинать темы
Вы не можете отвечать на сообщения
Вы не можете редактировать свои сообщения
Вы не можете удалять свои сообщения
Вы не можете голосовать в опросах
Вы не можете прикреплять файлы к сообщениям
Вы не можете скачивать файлы

▼ Вниз