ML
     
  Уважаемый Гость!
Вы можете поддержать проект и зарегистрироваться у наших партнеров - онлайн-стратегия MyLands. При регистрации в игре Вы получите код, который сможете активировать после регистрации на pirat.ca и получить 1000 дублонов.

Ваш код:
156f85568ae63e45e07ac461c96a83ba1a876b0a
 
     

Три женщины Достоевского (Евгений Ташков) [ 2011 , Россия , биография , DVDRip ]

Ответить на тему
 
Автор
Сообщение

Пост 31-Янв-2012 18:32

[Q] 

Smaq

Морской Волк

Три женщины Достоевского-
Страна: Россия
Жанр: биография
Год выпуска: 2011
Продолжительность: 01:41:31-Перевод: Не требуется
Режиссер: Евгений Ташков
В ролях: Андрей Ташков (Федор Достоевский), Виктор Раков, Елена Плаксина (Марья Дмитриевна Исаева), Глафира Тарханова (Апполинария Суслова), Марина Аксенова (Анна Григорьевна Сниткина), Катерина Васильева (Авдотья Панаева), Александр Андриенко (доктор), Андрей Фиронов (Николай Борисович Вергунов), Михаил Сидаш (слуга Стелловского), Ольга Антропова (Федосья)-Описание: Фильм основан на реальных событиях, происходивших в жизни великого писателя, о непростых взаимоотношениях с избранницами - Марией Исаевой, Аполлинарией Сусловой, Анной Сниткиной. В эти годы Фёдор Михайлович помогает брату Михаилу издавать собственный журнал «Время», а позже - журнал «Эпоха». На страницах этих журналов появляются такие произведения Достоевского, как «Униженные и оскорблённые», «Записки из мёртвого дома», «Зимние заметки о летних впечатлениях» и «Записки из подполья».-
СЭМПЛ-Качество: DVDRip
Контейнер: AVI
Видео: DivX 5, 720x384 (1.875), 1853 kbps, 25 fps, 0,268 bpp
Аудио: AC3 / 2.0 / 48 kHz / 192 kbps / 16 bit-
General
Complete name : C:\к нам !!\раздачи\3 женщины достоевского\Три женщины Достоевского..avi
Format : AVI
Format/Info : Audio Video Interleave
File size : 1.46 GiB
Duration : 1h 41mn
Overall bit rate : 2 055 Kbps
Writing application : VirtualDubMod 1.5.10.2 (build 2542/release)
Video
ID : 0
Format : MPEG-4 Visual
Format profile : Advanced [email protected]
Format settings, BVOP : 1
Format settings, QPel : No
Format settings, GMC : No warppoints
Format settings, Matrix : Default (MPEG)
Codec ID : DX50
Codec ID/Hint : DivX 5
Duration : 1h 41mn
Bit rate : 1 854 Kbps
Width : 720 pixels
Height : 384 pixels
Display aspect ratio : 1.875
Frame rate : 25.000 fps
Color space : YUV
Chroma subsampling : 4:2:0
Bit depth : 8 bits
Scan type : Progressive
Compression mode : Lossy
Bits/(Pixel*Frame) : 0.268
Stream size : 1.31 GiB (90%)
Writing library : XviD 64
Audio
ID : 1
Format : AC-3
Format/Info : Audio Coding 3
Mode extension : CM (complete main)
Codec ID : 2000
Duration : 1h 41mn
Bit rate mode : Constant
Bit rate : 192 Kbps
Channel(s) : 2 channels
Channel positions : Front: L R
Sampling rate : 48.0 KHz
Bit depth : 16 bits
Compression mode : Lossy
Stream size : 139 MiB (9%)
Alignment : Split accross interleaves
Interleave, duration : 40 ms (1.00 video frame)
Interleave, preload duration : 500 ms
Download / Скачать

Хотите скачать бесплатно? Зарегистрируйтесь на сайте (ссылка на регистрацию). Pirat.ca - самый быстрый торрент трекер в рунете!

Как скачивать  ·   Что такое торрент  ·   Рейтинг и ограничения



Последний раз редактировалось: Smaq (2012-01-31 22:03), всего редактировалось 2 раз(а)

Пост 31-Янв-2012 22:08 (спустя 3 часа)

Топик был перенесен из форума Художественные фильмы (Зарубежное кино) в форум Российские фильмы

Skinwalker
 

ficus42

Корсар

Пост 01-Фев-2012 12:20 (спустя 17 часов)

[Q] 

Будем посмотреть
[Профиль]  [ЛС] 

xdgx

Флибустьер

Пост 25-Ноя-2012 10:26 (спустя 9 месяцев 23 дня)

[Q] 

Хм, интересно
[Профиль]  [ЛС] 
Показать сообщения:    
Ответить на тему

Текущее время: Сегодня 21:56

Часовой пояс: GMT + 4



Вы не можете начинать темы
Вы не можете отвечать на сообщения
Вы не можете редактировать свои сообщения
Вы не можете удалять свои сообщения
Вы не можете голосовать в опросах
Вы не можете прикреплять файлы к сообщениям
Вы не можете скачивать файлы

▼ Вниз