ML
     
  Уважаемый Гость!
Вы можете поддержать проект и зарегистрироваться у наших партнеров - онлайн-стратегия MyLands. При регистрации в игре Вы получите код, который сможете активировать после регистрации на pirat.ca и получить 1000 дублонов.

Ваш код:
dbd0d701284cde74a1f34d06ce20b7bc75a73e75
 
     

Чистое искусство (Ренат Давлетьяров) [2016 г., триллер, детектив, WEB-DLRip] Original (RUS)

Ответить на тему
 
Автор
Сообщение

Пост 08-Июл-2016 19:24

[Q] 

aleksey99

--Чистое искусство--«....требует жертв»-- Производство: Россия, Кинокомпания «Реал-Дакота»
Год выпуска: 2016 г.
Жанр: триллер, детектив
Продолжительность: 01:28:34--Российская премьера: 9 июня 2016, «25th Floor Film»--Режиссер: Ренат Давлетьяров--В ролях: Анна Чиповская, Пётр Фёдоров, Константин Юшкевич, Илья Любимов, Дмитрий Брауэр, Александр Яценко, Алексей Барабаш, Леонид Мозговой, Людмила Чурсина, Анатолий Белый--Описание: «Ты живешь свою жизнь, думаешь про завтра и не знаешь, что кто-то чужой уже влез в твою жизнь и все в ней зачеркнул…»
Саша — известный фотограф. Она молода и красива. Неожиданно ее счастливая жизнь рушится. Она становится свидетелем загадочного убийства и тут же оказывается вовлеченной в криминальную аферу, связанную с живописью и большими деньгами. Теперь кажется, что весь мир против нее — за ней охотятся и хотят убить. Пытаясь понять, что с ней происходит, Саша не готова сдаваться. Движимая стремлением разгадать тайну, она начинает свое расследование…-- --Качество видео: WEB-DLRip
Контейнер: AVI
Видео кодек: XviD
Аудио кодек: AC3
Видео: 720x400 (1.80:1), 25 fps, XviD build 50 ~2006 kbps avg, 0.28 bit/pixel
Аудио: 48 kHz, AC3 Dolby Digital, 2/0 (L,R) ch, ~192 kbps
Cубтитры: отсутствуют
Общее
Полное имя : H:\Torrent2\Chistoe.iskysstvo.2O16.O.WEBDLRip.1400MB.avi
Формат : AVI
Формат/Информация : Audio Video Interleave
Размер файла : 1,37 Гбайт
Продолжительность : 1 ч. 28 м.
Общий поток : 2209 Кбит/сек
Программа кодирования : VirtualDubMod 1.5.10.3 | www.virtualdub-fr.org || (build 2550/release)
Библиотека кодирования : VirtualDubMod build 2550/release
Видео
Идентификатор : 0
Формат : MPEG-4 Visual
Профиль формата : Advanced [email protected]
Параметр BVOP формата : 2
Параметр QPel формата : Нет
Параметр GMC формата : Без точки перехода
Параметр матрицы формата : Default (MPEG)
Идентификатор кодека : XVID
Идентификатор кодека/Подсказка : XviD
Продолжительность : 1 ч. 28 м.
Битрейт : 2007 Кбит/сек
Ширина : 720 пикселей
Высота : 400 пикселей
Соотношение сторон : 16:9
Частота кадров : 25,000 кадров/сек
Цветовое пространство : YUV
Субдискретизация насыщенности : 4:2:0
Битовая глубина : 8 бит
Тип развёртки : Прогрессивная
Метод сжатия : С потерями
Бит/(Пиксели*Кадры) : 0.279
Размер потока : 1,24 Гбайт (91%)
Библиотека кодирования : XviD 1.2.1 (UTC 2008-12-04)
Аудио
Идентификатор : 1
Формат : AC-3
Формат/Информация : Audio Coding 3
Расширение режима : CM (complete main)
Параметр Endianness формата : Big
Идентификатор кодека : 2000
Продолжительность : 1 ч. 28 м.
Вид битрейта : Постоянный
Битрейт : 192 Кбит/сек
Каналы : 2 канала
Расположение каналов : Front: L R
Частота : 48,0 КГц
Частота кадров : 31,250 кадров/сек (1536 spf)
Метод сжатия : С потерями
Размер потока : 122 Мбайт (9%)
Выравнивание : Разделение по промежуткам
Продолжительность промежутка : 40 мс. (1,00 видеокадр)
Время предзагрузки промежутка : 500 мс.
Трейлер
Download / Скачать

Хотите скачать бесплатно? Зарегистрируйтесь на сайте (ссылка на регистрацию). Pirat.ca - самый быстрый торрент трекер в рунете!

Как скачивать  ·   Что такое торрент  ·   Рейтинг и ограничения

Barskavkaz

Корсар

Пост 10-Июл-2016 20:24 (спустя 2 дня 1 час)

[Q] 

скачан 123 раза и не 1 комментария? Кто смотрел, отпишитесь плиз

_________________
Д.Тк
[Профиль]  [ЛС] 

kosmo72rus

Корсар

Пост 10-Июл-2016 21:28 (спустя 1 час 3 минуты)

[Q] 

скачан 123 раза и не 1 комментария? Кто смотрел, отпишитесь плиз
Люди слов не находят чтоб описать...

_________________
[Профиль]  [ЛС] 

[email protected]

Морской Волк

Пост 12-Июл-2016 19:22 (спустя 1 день 21 час)

[Q] 

Что сказать... Чиповская няша, остальное не очень
[Профиль]  [ЛС] 

viji

Корсар

Пост 13-Июл-2016 09:42 (спустя 14 часов)

[Q] 

Фильм хорош. Идея новая, сюжет, да и в целом снят прилично. "И если бы Путин не подарил картину за океан, всё было бы спокойно" ))
[Профиль]  [ЛС] 

Recon105

Штурман

Пост 13-Июл-2016 11:12 (спустя 1 час 30 минут)

[Q] 

Очередной отечественный трешак. По мне, так картинка обложки - лучшая часть фильма. Посмотрели на смазливую телку с пистолетом? Всё, дальше просто обоснование почему именно у этой смазливой телки в руках оказался пистолет...

_________________
Обиваю двери кожей заказчика...
[Профиль]  [ЛС] 

Amorphis777

Морской Волк

Пост 17-Июл-2016 17:46 (спустя 4 дня)

[Q] 

Спасибо! Весьма неплохой фильм, а на фоне всяких пятниц-одноклассниц-свадеб-выпускных так и просто отличный! Сюжет интересный, игра актеров на уровне.
[Профиль]  [ЛС] 
Показать сообщения:    
Ответить на тему

Текущее время: Сегодня 18:28

Часовой пояс: GMT + 4



Вы не можете начинать темы
Вы не можете отвечать на сообщения
Вы не можете редактировать свои сообщения
Вы не можете удалять свои сообщения
Вы не можете голосовать в опросах
Вы не можете прикреплять файлы к сообщениям
Вы не можете скачивать файлы

▼ Вниз