ML
     
  Уважаемый Гость!
Вы можете поддержать проект и зарегистрироваться у наших партнеров - онлайн-стратегия MyLands. При регистрации в игре Вы получите код, который сможете активировать после регистрации на pirat.ca и получить 1000 дублонов.

Ваш код:
aec9a4a936117fb450ba69e519991a0465404b1d
 
     

Все должны умереть (Сергей Буковский) [2007 г., боевик, криминал, DVDRip]

Ответить на тему
 
Автор
Сообщение

Пост 12-Июл-2016 14:57

[Q] 

somik

Легенда

-Все должны умереть-- Производство: Украина, Star Media
Режиссер: Сергей Буковский
Жанр: боевик, криминал
Год выпуска: 2007 г.
Продолжительность: 01:59:34
Российская премьера: 24 ноября 2007
В ролях: Игорь Савочкин, Михаил Крышталь, Екатерина Никитина, Сергей Романюк, Мария Саффо, Александр Тютин, ...-Описание: Бывший сотрудник уголовного розыска Клим ведет уединенный образ жизни. Его дом находится на отшибе, с соседями он почти не общается, и поэтому люди прозвали мужчину Сычом. Они побаиваются Клима и не горят желанием лишний раз попадаться ему на глаза.
Однажды к Климу приезжает друг Иван и просит помочь в одном сомнительном деле. Клим советует ему не ввязываться в это на его взгляд опасное дело. Опасаясь за Ивана, он все же решает помочь ему. Но уже на рассвете его приятеля находят мертвым. Клим не может остаться равнодушным к этой трагедии и считает делом чести найти и наказать виновного. Он начинает свое расследование, пользуясь нестандартными методами.
Параллельно молодая следователь Елизавета тоже ищет преступника. Но разобраться в этом деле нелегко, да и под силу ли оно начинающему сотруднику прокуратуры? С каждым днем подозреваемых становится меньше - они погибают при странных обстоятельствах-Сэмпл КиноПоиск
Качество видео: DVDRip
Контейнер: AVI
Видео кодек: XviD
Аудио кодек: MP3
Видео: 704x384 (1.83:1), 25 fps, XviD build 50 ~759 kbps avg, 0.11 bit/pixel
Аудио: 44.100 kHz, MPEG Layer 3, 2 ch, ~122.62 kbps avg
Cубтитры: отсутствуют
Общее
Полное имя : E:\Советские фильмы\Все должны умереть\Vse dolzny umeretj.2007.[pirat.ca].avi
Формат : AVI
Формат/Информация : Audio Video Interleave
Размер файла : 766 Мбайт
Продолжительность : 1 ч. 59 м.
Режим общего битрейта : Переменный
Общий поток : 895 Кбит/сек
Программа кодирования : MEncoder Sherpya-SVN-r30075-4.2.5
Библиотека кодирования : MPlayer
Видео
Идентификатор : 0
Формат : MPEG-4 Visual
Профиль формата : [email protected]
Параметр BVOP формата : Нет
Параметр QPel формата : Нет
Параметр GMC формата : Без точки перехода
Параметр матрицы формата : Default (H.263)
Идентификатор кодека : XVID
Идентификатор кодека/Подсказка : XviD
Продолжительность : 1 ч. 59 м.
Битрейт : 760 Кбит/сек
Ширина : 704 пикселя
Высота : 384 пикселя
Соотношение сторон : 1,85:1
Частота кадров : 25,000 кадров/сек
Цветовое пространство : YUV
Субдискретизация насыщенности : 4:2:0
Битовая глубина : 8 бит
Тип развёртки : Прогрессивная
Метод сжатия : С потерями
Бит/(Пиксели*Кадры) : 0.112
Размер потока : 650 Мбайт (85%)
Библиотека кодирования : XviD 1.2.1 (UTC 2008-12-04)
Аудио
Идентификатор : 1
Формат : MPEG Audio
Версия формата : Version 1
Профиль формата : Layer 3
Режим : Joint stereo
Расширение режима : MS Stereo
Идентификатор кодека : 55
Идентификатор кодека/Подсказка : MP3
Продолжительность : 1 ч. 59 м.
Вид битрейта : Переменный
Битрейт : 123 Кбит/сек
Каналы : 2 канала
Частота : 44,1 КГц
Метод сжатия : С потерями
Размер потока : 105 Мбайт (14%)
Выравнивание : Соединение по промежуткам
Продолжительность промежутка : 26 мс. (0,65 видеокадр)
Время предзагрузки промежутка : 551 мс.
Download / Скачать

Хотите скачать бесплатно? Зарегистрируйтесь на сайте (ссылка на регистрацию). Pirat.ca - самый быстрый торрент трекер в рунете!

Как скачивать  ·   Что такое торрент  ·   Рейтинг и ограничения

Показать сообщения:    
Ответить на тему

Текущее время: Сегодня 02:22

Часовой пояс: GMT + 4



Вы не можете начинать темы
Вы не можете отвечать на сообщения
Вы не можете редактировать свои сообщения
Вы не можете удалять свои сообщения
Вы не можете голосовать в опросах
Вы не можете прикреплять файлы к сообщениям
Вы не можете скачивать файлы

▼ Вниз