ML
     
  Уважаемый Гость!
Вы можете поддержать проект и зарегистрироваться у наших партнеров - онлайн-стратегия MyLands. При регистрации в игре Вы получите код, который сможете активировать после регистрации на pirat.ca и получить 1000 дублонов.

Ваш код:
59354507ba913a0948d1a8f2e30f2e04c4cd7b9b
 
     

Львиная доля (Александр Муратов) [2001 г., боевик, криминал, DVDRip]

Ответить на тему
 
Автор
Сообщение

Пост 12-Июл-2016 15:27

[Q] 

somik

Легенда

-Львиная доля-- Производство: Россия, Студия «Козерог»
Режиссер: Александр Муратов
Жанр: боевик, криминал
Год выпуска: 2001 г.
Продолжительность: 01:43:12
Дата выхода DVD: 31 мая 2005, «Кармен Видео»
В ролях: Николай Караченцов, Юрий Беляев, Чулпан Хаматова, Дмитрий Марьянов, Дмитрий Певцов, Вячеслав Молоков, Николай Чиндяйкин, Владимир Зайцев, Александр Дьяченко, Владимир Большов, Борис Клюев, Степан Старчиков, Любовь Ульянова, Тамара Акулова, Наталья Назарова, Вячеслав Жолобов, Сергей Видинеев, Геннадий Назаров, Олег Комаров, Дмитрий Ульянов, Андрей Межулис, Егор Пазенко, Олег Семисынов, Михаил Леонцев, Андрей Резвый-Описание: Когда-то они были специальным подразделением ФСБ, выполнявшим особо важные задания. Но после одной неудачной операции — похищен портативный ядерный заряд — они были уволены со службы и едва избежали тюрьмы.
Однако все незаконченные дела рано или поздно начинают создавать большие проблемы — «потерянный» заряд оказывается в руках у бандитов. И вот преуспевающий бизнесмен, частный телохранитель и спившийся безработный снова объединяются в одну команду, чтобы вернуть старый «должок».
С самого начала события складываются вопреки задуманному плану. Герои находятся под плотным контролем преступников, и это может быть связано только с предательством…-Сэмпл КиноПоиск
Качество видео: DVDRip
Контейнер: AVI
Видео кодек: XviD
Аудио кодек: AC3
Видео: 688x416 (1.65:1), 25 fps, XviD build 73 ~1814 kbps avg, 0.25 bit/pixel
Аудио: 48 kHz, AC3 Dolby Digital, 2/0 (L,R) + LFE ch, ~192 kbps
Cубтитры: отсутствуют
Из предъявленного Дине удостоверения становится известно, что героя Николая Караченцова (Ёжика) зовут Николай Петрович Резанов. В рок-опере «Юнона и Авось» роль графа Н. П. Резанова неизменно исполнял Караченцов — вплоть до несчастного случая.
Ёжик ни головы ни ножек..
Спасибо Александру Муратову за этот прекрасный фильм. При его просмотре у меня не было ни разу желания прервать просмотр чтобы например пойти налить чай, сюжет так затягивает что ты просто не можешь оторваться. Изумительный актерский состав: Беляев, Караченцов, Марьянов, Певцов не просто играют главных героев а живут их жизнью, мало сказать что ты им веришь.
Я считаю что этот фильм должен посмотреть каждый. Мне очень обидно что когда я спрашиваю про этот фильм у знакомых они говорят что даже не слышали о нем. По телевизору стараются больше показывать американские боевики из ряда высосанных из пальца с нулевой игрой актеров и сюжетом как из унитаза, уж извините за такое резкое мнение.
Я очень надеюсь что у нас в стране вспомнят про подобные фильмы и все чаще будут представлять из публике.
Интригующий сюжет, замечательный актерский состав, динамичное развитие событий, прекрасная музыка просто не позволяют поставить этому фильму ниже 10 баллов.
Общее
Полное имя : J:\Львиная доля\Lvinaja dolja.2001.DVDRip.[pirat.ca].avi
Формат : AVI
Формат/Информация : Audio Video Interleave
Размер файла : 1,45 Гбайт
Продолжительность : 1 ч. 43 м.
Общий поток : 2016 Кбит/сек
Название фильма : Lvinaja dolja.2001.DVDRip.[pirat.ca]
Программа кодирования : VirtualDubMod 1.5.10.3 | www.virtualdub-fr.org || (build 2550/release)
Видео
Идентификатор : 0
Формат : MPEG-4 Visual
Профиль формата : Advanced [email protected]
Параметр BVOP формата : 2
Параметр QPel формата : Нет
Параметр GMC формата : Без точки перехода
Параметр матрицы формата : Выборочная
Идентификатор кодека : XVID
Идентификатор кодека/Подсказка : XviD
Продолжительность : 1 ч. 43 м.
Битрейт : 1815 Кбит/сек
Ширина : 688 пикселей
Высота : 416 пикселей
Соотношение сторон : 5:3
Частота кадров : 25,000 кадров/сек
Цветовое пространство : YUV
Субдискретизация насыщенности : 4:2:0
Битовая глубина : 8 бит
Тип развёртки : Прогрессивная
Метод сжатия : С потерями
Бит/(Пиксели*Кадры) : 0.254
Размер потока : 1,31 Гбайт (90%)
Библиотека кодирования : XviD 73
Аудио
Идентификатор : 1
Формат : AC-3
Формат/Информация : Audio Coding 3
Расширение режима : CM (complete main)
Параметр Endianness формата : Big
Идентификатор кодека : 2000
Продолжительность : 1 ч. 43 м.
Вид битрейта : Постоянный
Битрейт : 192 Кбит/сек
Каналы : 3 канала
Расположение каналов : Front: L R, LFE
Частота : 48,0 КГц
Частота кадров : 31,250 кадров/сек (1536 spf)
Метод сжатия : С потерями
Размер потока : 142 Мбайт (10%)
Выравнивание : Разделение по промежуткам
Продолжительность промежутка : 40 мс. (1,00 видеокадр)
Время предзагрузки промежутка : 500 мс.
Download / Скачать

Хотите скачать бесплатно? Зарегистрируйтесь на сайте (ссылка на регистрацию). Pirat.ca - самый быстрый торрент трекер в рунете!

Как скачивать  ·   Что такое торрент  ·   Рейтинг и ограничения

Показать сообщения:    
Ответить на тему

Текущее время: Сегодня 16:07

Часовой пояс: GMT + 4



Вы не можете начинать темы
Вы не можете отвечать на сообщения
Вы не можете редактировать свои сообщения
Вы не можете удалять свои сообщения
Вы не можете голосовать в опросах
Вы не можете прикреплять файлы к сообщениям
Вы не можете скачивать файлы

▼ Вниз