ML
     
  Уважаемый Гость!
Вы можете поддержать проект и зарегистрироваться у наших партнеров - онлайн-стратегия MyLands. При регистрации в игре Вы получите код, который сможете активировать после регистрации на pirat.ca и получить 1000 дублонов.

Ваш код:
bb0cb47ee786a33f751af5a500dd264c9487bfac
 
     

Моя мама – невеста (Наталья Родионова) [2004 г., комедия, DVDRip]

Ответить на тему
 
Автор
Сообщение

Пост 12-Июл-2016 16:31

[Q] 

somik

Легенда

-Моя мама – невеста-- Производство: Россия, Студия "Фаворитфильм "
Режиссер: Наталья Родионова
Жанр: комедия
Год выпуска: 2004 г.
Продолжительность: 01:10:02
Дата выхода DVD: 27 декабря 2004, «Союз-Видео»
В ролях: Александра Буданова, Алексей Нилов, Антон Воловик, Иван Агапов, Игорь Жуковский, Ирина Аугшкап, Ирина Знаменщикова, Мария Кивва, Юлия Гуль-Описание: Молодая женщина Лара, благодаря своей порядочности, в одночасье лишается мужа, работы и квартиры. И тогда за устройство личной жизни матери берется 10-летний Ваня. Несколько хитроумных комбинаций, и он уже ведет Лару в богатый особняк разводящегося с женой бизнесмена Ивановского, однако потенциальный «жених» встречает их с ружьем наперевес. Юному вундеркинду удается все уладить, но тут возникает жена Ивановского, пытаясь вернуть своего мужа…-Сэмпл КиноПоиск
Качество видео: DVDRip
Контейнер: AVI
Видео кодек: XviD
Аудио кодек: AC3
Видео: 720x416 (1.73:1), 25 fps, XviD build 47 ~2323 kbps avg, 0.31 bit/pixel
Аудио: 48 kHz, AC3 Dolby Digital, 2/0 (L,R) ch, ~448 kbps
Cубтитры: отсутствуют
Общее
Полное имя : C:\герои 7\Моя мама невеста\Moja mama-nevesta.2004.DVDRip.[pirat.ca].avi
Формат : AVI
Формат/Информация : Audio Video Interleave
Размер файла : 1,36 Гбайт
Продолжительность : 1 ч. 10 м.
Общий поток : 2782 Кбит/сек
Название фильма : Moja mama-nevesta.2004.DVDRip.[pirat.ca]
Программа кодирования : VirtualDubMod 1.5.10.2 (build 2540/release)
Видео
Идентификатор : 0
Формат : MPEG-4 Visual
Профиль формата : Advanced [email protected]
Параметр BVOP формата : 1
Параметр QPel формата : Нет
Параметр GMC формата : Без точки перехода
Параметр матрицы формата : Default (H.263)
Идентификатор кодека : XVID
Идентификатор кодека/Подсказка : XviD
Продолжительность : 1 ч. 10 м.
Битрейт : 2324 Кбит/сек
Ширина : 720 пикселей
Высота : 416 пикселей
Соотношение сторон : 1,731
Частота кадров : 25,000 кадров/сек
Цветовое пространство : YUV
Субдискретизация насыщенности : 4:2:0
Битовая глубина : 8 бит
Тип развёртки : Прогрессивная
Метод сжатия : С потерями
Бит/(Пиксели*Кадры) : 0.310
Размер потока : 1,14 Гбайт (84%)
Библиотека кодирования : XviD 1.2.0.dev47 (UTC 2006-11-01)
Аудио
Идентификатор : 1
Формат : AC-3
Формат/Информация : Audio Coding 3
Расширение режима : CM (complete main)
Параметр Endianness формата : Big
Идентификатор кодека : 2000
Продолжительность : 1 ч. 10 м.
Вид битрейта : Постоянный
Битрейт : 448 Кбит/сек
Каналы : 2 канала
Расположение каналов : Front: L R
Частота : 48,0 КГц
Частота кадров : 31,250 кадров/сек (1536 spf)
Метод сжатия : С потерями
Размер потока : 224 Мбайт (16%)
Выравнивание : Разделение по промежуткам
Продолжительность промежутка : 40 мс. (1,00 видеокадр)
Время предзагрузки промежутка : 500 мс.
Download / Скачать

Хотите скачать бесплатно? Зарегистрируйтесь на сайте (ссылка на регистрацию). Pirat.ca - самый быстрый торрент трекер в рунете!

Как скачивать  ·   Что такое торрент  ·   Рейтинг и ограничения

Показать сообщения:    
Ответить на тему

Текущее время: Сегодня 02:18

Часовой пояс: GMT + 4



Вы не можете начинать темы
Вы не можете отвечать на сообщения
Вы не можете редактировать свои сообщения
Вы не можете удалять свои сообщения
Вы не можете голосовать в опросах
Вы не можете прикреплять файлы к сообщениям
Вы не можете скачивать файлы

▼ Вниз