ML
     
  Уважаемый Гость!
Вы можете поддержать проект и зарегистрироваться у наших партнеров - онлайн-стратегия MyLands. При регистрации в игре Вы получите код, который сможете активировать после регистрации на pirat.ca и получить 1000 дублонов.

Ваш код:
74c28610d77aaac24ba694c4128f3b9b46b04220
 
     

Апостол. Отцовский инстинкт (Алексей Волов) [2014 г., боевик, детектив, криминал, HDTVRip]

Ответить на тему
 
Автор
Сообщение

Пост 14-Июл-2016 13:13

[Q] 

somik

Легенда

-Апостол. Отцовский инстинкт-- Производство: Россия, ФОРВАРД фильм, студия КИНОЗАВОД
Режиссер: Алексей Волов
Жанр: боевик, детектив, криминал
Год выпуска: 2014 г.
Продолжительность: 01:32:01
В ролях: Анатолий Узденский, Ольга Иванова (IV), Константин Стрельников, Сергей Колесников (II), Сергей Комаров (II), Максим Пинскер, Егор Баринов, Игорь Волков, Николай Амосов, Алексей Агрызков, Елена Борисова, Святослав Чирков, Елена Фёдорова-Описание: Фильм о Петре Набокове по прозвищу «Апостол», одном из ведущих героев телесериала «Ментовские войны». Кто-то объявил охоту на Апостола, покушение следует за покушением. Набоков не знает, кто за этим стоит, но должен разобраться, ведь на кону не только его жизнь, но и судьба недавно найденной им дочери Милы. Апостол считает, что его решил убрать Пантелей, с которым у них сложился конфликт из-за бизнес-интересов. А может быть это месть давнего врага Апостола — Градуса, который, отсидев 20 лет, вышел на свободу. Апостол не может рисковать жизнью дочери и решает отправить её за границу. И, едва Мила уезжает, в дом Апостола врываются киллеры. Лишь хорошая реакция и большой жизненный опыт позволяют Набокову остаться в живых и обезвредить преступников. Он решается на неожиданный шаг, о котором не рассказывает никому, даже дочери и начальнику своей охраны Реутову. Апостол с помощью своих старых друзей начинает собственное расследование. Правда, которую ему предстоит открыть, окажется намного страшнее, чем он мог себе представить…-Сэмпл КиноПоиск
Качество видео: HDTVRip
Контейнер: AVI
Видео кодек: XviD
Аудио кодек: AC3
Видео: 720x400 (1.80:1), 25 fps, XviD build 73 ~1925 kbps avg, 0.27 bit/pixel
Аудио: 48 kHz, AC3 Dolby Digital, 2/0 (L,R) ch, ~192 kbps
Cубтитры: отсутствуют
бщее
Полное имя : D:\D\Апостол\Apostol.Otcovskiy instinkt.2014.HDTVRip.[pirat.ca].avi
Формат : AVI
Формат/Информация : Audio Video Interleave
Размер файла : 1,37 Гбайт
Продолжительность : 1 ч. 32 м.
Общий поток : 2128 Кбит/сек
Название фильма : Apostol.Otcovskiy instinkt.2014.HDTVRip.[pirat.ca]
Программа кодирования : VirtualDubMod 1.5.10.3 | www.virtualdub-fr.org || (build 2550/release)
Видео
Идентификатор : 0
Формат : MPEG-4 Visual
Профиль формата : Advanced [email protected]
Параметр BVOP формата : 1
Параметр QPel формата : Нет
Параметр GMC формата : Без точки перехода
Параметр матрицы формата : Выборочная
Идентификатор кодека : XVID
Идентификатор кодека/Подсказка : XviD
Продолжительность : 1 ч. 32 м.
Битрейт : 1926 Кбит/сек
Ширина : 720 пикселей
Высота : 400 пикселей
Соотношение сторон : 16:9
Частота кадров : 25,000 кадров/сек
Цветовое пространство : YUV
Субдискретизация насыщенности : 4:2:0
Битовая глубина : 8 бит
Тип развёртки : Прогрессивная
Метод сжатия : С потерями
Бит/(Пиксели*Кадры) : 0.267
Размер потока : 1,24 Гбайт (91%)
Библиотека кодирования : XviD 73
Аудио
Идентификатор : 1
Формат : AC-3
Формат/Информация : Audio Coding 3
Расширение режима : CM (complete main)
Параметр Endianness формата : Big
Идентификатор кодека : 2000
Продолжительность : 1 ч. 32 м.
Вид битрейта : Постоянный
Битрейт : 192 Кбит/сек
Каналы : 2 канала
Расположение каналов : Front: L R
Частота : 48,0 КГц
Частота кадров : 31,250 кадров/сек (1536 spf)
Метод сжатия : С потерями
Размер потока : 126 Мбайт (9%)
Выравнивание : Разделение по промежуткам
Продолжительность промежутка : 40 мс. (1,00 видеокадр)
Время предзагрузки промежутка : 500 мс.
Download / Скачать

Хотите скачать бесплатно? Зарегистрируйтесь на сайте (ссылка на регистрацию). Pirat.ca - самый быстрый торрент трекер в рунете!

Как скачивать  ·   Что такое торрент  ·   Рейтинг и ограничения

jofrei53

Корсар

Пост 14-Июл-2016 23:16 (спустя 10 часов)

[Q] 

somik, БОЛЬШОЕ Спасибо!!! На Ваше письмо отвечу позже, в ЛС.. Успехов... Автору респект!!! Лови бочку
[Профиль]  [ЛС] 
Показать сообщения:    
Ответить на тему

Текущее время: Сегодня 09:59

Часовой пояс: GMT + 4



Вы не можете начинать темы
Вы не можете отвечать на сообщения
Вы не можете редактировать свои сообщения
Вы не можете удалять свои сообщения
Вы не можете голосовать в опросах
Вы не можете прикреплять файлы к сообщениям
Вы не можете скачивать файлы

▼ Вниз