ML
     
  Уважаемый Гость!
Вы можете поддержать проект и зарегистрироваться у наших партнеров - онлайн-стратегия MyLands. При регистрации в игре Вы получите код, который сможете активировать после регистрации на pirat.ca и получить 1000 дублонов.

Ваш код:
ec3b26eefbcdc72e08e9fd33c6846bb2ca10f8b1
 
     

Рассказы (Михаил Сегал) [2012 г., драма, комедия, BDRip-AVC] [18+]

Ответить на тему
 
Автор
Сообщение

Пост 17-Июл-2016 20:08

[Q] 

somik

Легенда

-Рассказы / 18+-- Производство: Россия, R.U. Media
Режиссер: Михаил Сегал
Жанр: драма, комедия
Год выпуска: 2012 г.
Продолжительность: 01:50:17
Российская премьера: 15 ноября 2012, «WDSSPR»
Дата выхода DVD: 14 марта 2013, «Мистерия Звука»
Дата выхода Blu-Ray: 14 марта 2013, «Мистерия Звука»-В ролях: Андрей Мерзликин, Игорь Угольников, Тамара Миронова, Константин Юшкевич, Дарья Носик, Любовь Новикова, Владислав Лешкевич, Сергей Фетисов, Елена Нестерова, Василий Мичков-Описание: Рукопись молодого писателя попадает в литературное издательство и начинает влиять на жизнь любого, кто откроет её и прочтет хотя бы страницу. Четыре рассказа из рукописи — это четыре истории с непредсказуемой развязкой.-Сэмпл КиноПоиск
Качество видео: BDRip-AVC
Контейнер: MKV
Видео кодек: MPEG4 AVC
Аудио кодек: AC3
Видео: ~2378 Кбит/сек, 1024x576, 24,000 кадра/сек
Аудио: AC3 2.0, 448 Кбит/сек, 48,0 КГц
Cубтитры: русские
Формат субтитров: softsub (SRT)
Доп. информация о субтитрах: включаемые
Приз журнала «Кинопроцесс» в рамках 10-ого Московского фестиваля отечественного кино «Московская премьера».
Специальный приз жюри «за создание в четырёх новеллах единой и оригинальной картины мира» на фестивале «Амурская осень» в Благовещенске.
Приз зрительских симпатий по итогам МКФ «Меридианы Тихого» во Владивостоке и Гран-при фестиваля «Виват кино России!» в Санкт-Петербурге.
Ника, 2013 год
Номинации (1):
Лучший сценарий
Кинотавр, 2012 год
Победитель (2):
Приз имени Григория Горина за лучший сценарий
Диплом гильдии киноведов и кинокритиков
Номинации (1):
Главный приз
Такие фильмы сложно смотреть без подготовки. Несмотря на то, что в жанре заявлены простейшие «комедия, драма, мелодрама», с «Рассказами» все далеко не так просто. Это в большой степени действительно рассказы — истории, притчи, новеллы. И воспринимается поэтому несколько по-другому, не как обычный фильм.
Истории и герои, действующие в этих историях — скорее метафоры людей, чем люди. Наименее ярко это проявляется, пожалуй, в новелле про взятки — здесь действительно нужны реальные лица по большей части, а главная метафора — переходящие из рук в руки деньги. Несмотря на то, что новизны в этой истории практически не наблюдается, с интересом ждешь, где же закончится путешествие этих многострадальных купюр. Что характерно, давая кому-то взятку, мы совершенно об этом не думаем. Да что там, мы не думаем об этом, даже расплачиваясь в магазине — а ведь это довольно интересно, через какие руки проходят деньги, куда они путешествуют, во что превращаются… новелла подталкивает пофантазировать на эту тему.
Остальные же новеллы произвели очень глубокое впечатление. Поскольку, в отличие от вышеописанной, каждая из них — о каком-то роде душевной пустоты. Казалось бы, не то время и не та эпоха, чтобы читать Пушкина и твердить о бездуховности мира, но в «Рассказах» это сделано как-то настолько четко, иронично и жестко, что понимаешь — действительно, актуально.
Отдельно хочется сказать про качество съемки: картинка в «Рассказах» получилась специфической, немного холодноватой. Это тоже отражает настроение, с которым изображена современная действительность — даже самые шикарные кафе и рестораны не могут заполнить эту сероватую пустоту. А что может? Ну как что — Пушкин, конечно. В метафорическом смысле.
9 из 10
Общее
Уникальный идентификатор : 197985335393249707963920066308386908659 (0x94F296AE6180EC7DBC7521A8CB40E9F3)
Полное имя : J:\Рассказы\Rasskazy.2012.BDRip-AVC.[pirat.ca].mkv
Формат : Matroska
Версия формата : Version 2
Размер файла : 2,20 Гбайт
Продолжительность : 1 ч. 50 м.
Общий поток : 2852 Кбит/сек
Название фильма : Rasskazy.2012.BDRip-AVC
Дата кодирования : UTC 2016-07-17 15:42:02
Программа кодирования : mkvmerge v5.3.0 ('I could have danced') built on Feb 9 2012 10:38:07
Библиотека кодирования : libebml v1.2.3 + libmatroska v1.3.0
Видео
Идентификатор : 1
Формат : AVC
Формат/Информация : Advanced Video Codec
Профиль формата : [email protected]
Параметр CABAC формата : Да
Параметр ReFrames формата : 12 кадров
Идентификатор кодека : V_MPEG4/ISO/AVC
Продолжительность : 1 ч. 50 м.
Битрейт : 2378 Кбит/сек
Ширина : 1024 пикселя
Высота : 576 пикселей
Соотношение сторон : 16:9
Режим частоты кадров : Постоянный
Частота кадров : 24,000 кадра/сек
Цветовое пространство : YUV
Субдискретизация насыщенности : 4:2:0
Битовая глубина : 8 бит
Тип развёртки : Прогрессивная
Бит/(Пиксели*Кадры) : 0.168
Размер потока : 1,81 Гбайт (82%)
Библиотека кодирования : x264 core 130 r2273 b3065e6
Настройки программы : cabac=1 / ref=12 / deblock=1:-3:-3 / analyse=0x3:0x133 / me=umh / subme=11 / psy=1 / psy_rd=1.00:0.00 / mixed_ref=1 / me_range=32 / chroma_me=1 / trellis=2 / 8x8dct=1 / cqm=0 / deadzone=21,11 / fast_pskip=0 / chroma_qp_offset=-2 / threads=12 / lookahead_threads=2 / sliced_threads=0 / nr=0 / decimate=0 / interlaced=0 / bluray_compat=0 / constrained_intra=0 / bframes=8 / b_pyramid=2 / b_adapt=2 / b_bias=0 / direct=3 / weightb=1 / open_gop=0 / weightp=2 / keyint=250 / keyint_min=23 / scenecut=40 / intra_refresh=0 / rc_lookahead=60 / rc=2pass / mbtree=0 / bitrate=2378 / ratetol=1.0 / qcomp=0.70 / qpmin=0 / qpmax=69 / qpstep=4 / cplxblur=20.0 / qblur=0.5 / vbv_maxrate=50000 / vbv_bufsize=61400 / nal_hrd=none / ip_ratio=1.40 / pb_ratio=1.30 / aq=1:0.90
Язык : Russian
Default : Да
Forced : Нет
Цветовой диапазон : Limited
Основные цвета : BT.709
Характеристики трансфера : BT.709
Коэффициенты матрицы : BT.709
Аудио
Идентификатор : 2
Формат : AC-3
Формат/Информация : Audio Coding 3
Расширение режима : CM (complete main)
Параметр Endianness формата : Big
Идентификатор кодека : A_AC3
Продолжительность : 1 ч. 50 м.
Вид битрейта : Постоянный
Битрейт : 448 Кбит/сек
Каналы : 2 канала
Расположение каналов : Front: L R
Частота : 48,0 КГц
Частота кадров : 31,250 кадров/сек (1536 spf)
Метод сжатия : С потерями
Размер потока : 353 Мбайт (16%)
Заголовок : Original
Язык : Russian
Default : Да
Forced : Нет
Текст
Идентификатор : 3
Формат : PGS
Идентификатор кодека : S_HDMV/PGS
Идентификатор кодека/Информация : Picture based subtitle format used on BDs/HD-DVDs
Язык : Russian
Default : Нет
Forced : Нет
Меню
00:00:00.000 : ru:00:00:00.000
00:09:32.572 : ru:00:09:32.572
00:17:06.984 : ru:00:17:06.984
00:26:16.784 : ru:00:26:16.784
00:34:40.203 : ru:00:34:40.203
00:45:42.615 : ru:00:45:42.615
00:52:01.493 : ru:00:52:01.493
01:00:46.768 : ru:01:00:46.768
01:10:10.081 : ru:01:10:10.081
01:19:30.808 : ru:01:19:30.808
01:26:54.543 : ru:01:26:54.543
01:37:05.236 : ru:01:37:05.236
01:48:54.153 : ru:01:48:54.153
Download / Скачать

Хотите скачать бесплатно? Зарегистрируйтесь на сайте (ссылка на регистрацию). Pirat.ca - самый быстрый торрент трекер в рунете!

Как скачивать  ·   Что такое торрент  ·   Рейтинг и ограничения

Показать сообщения:    
Ответить на тему

Текущее время: Сегодня 03:52

Часовой пояс: GMT + 4



Вы не можете начинать темы
Вы не можете отвечать на сообщения
Вы не можете редактировать свои сообщения
Вы не можете удалять свои сообщения
Вы не можете голосовать в опросах
Вы не можете прикреплять файлы к сообщениям
Вы не можете скачивать файлы

▼ Вниз