ML
     
  Уважаемый Гость!
Вы можете поддержать проект и зарегистрироваться у наших партнеров - онлайн-стратегия MyLands. При регистрации в игре Вы получите код, который сможете активировать после регистрации на pirat.ca и получить 1000 дублонов.

Ваш код:
74c28610d77aaac24ba694c4128f3b9b46b04220
 
     

Вагончик мой дальний (Валерий Харченко) [2013 г., Драма, экранизация, SATRip] [(мини-сериал)]

Ответить на тему
 
Автор
Сообщение

Пост 20-Июл-2016 07:09

[Q] 

somik

Легенда

-Вагончик мой дальний / (мини-сериал)-- Производство: Беларусь, Россия, Студия С.С.С.Р., Nonstop MEDIA
Режиссер: Валерий Харченко
Жанр: Драма, экранизация
Год выпуска: 2013 г.
Продолжительность: 4х00:51:00
Российская премьера: 8 мая 2013
В ролях: Анна Леванова, Павел Буйнаков, Павел Фартуков, Алексей Девотченко, Ирина Бразговка, Сергей Русскин, Наталья Фатеева, Павел Гайдученко, Федор Наретя, Денис Коломоец, Глеб Тищенко, Михаил Стародубов-Описание: Апрель 1944 года. Из спецдонесения капитана Коваленко:"… Среди поступивших в эшелоне… на ст. Желтовка г. Курган… поступил груз без обозначения станции отправления и оформления бумаг, значащийся в общей накладной сопровождения как группа малолетних преступников в количестве 23 единиц мужского и женского пола…». Об этом странном вагончике и его обитателях — 16-тилетнем беспризорном Антоне, его друге, сверстнике Шабане, двух сестрах Зое и Шурочке, интернированном немце Фишере-Рыбакове, их мытарствах по необъятной Сибири, вдалеке от фронта.
Но дыхание войны чувствуется по бесконечным санитарным эшелонам с раненными, в плаче вдов в глухих деревнях, в голоде и холоде людей, мобилизованных на «трудовой фронт» — ссыльных русских и волжских немцев. На этом фоне рождается и живет первая любовь двух интернированных подростков — Антона и Зои. Их нелегкий путь лежит через человеческую подлость и предательства, через ад военного апокалипсиса, в который ввергнута страна.-Сэмпл КиноПоиск
Качество видео: SATRip
Контейнер: MKV
Видео кодек: MPEG4 AVC
Аудио кодек: AC3
Видео: MPEG-4 AVC, ~ 1703 Кбит/с, 720x400, 25 кадр/с
Аудио: AC3, 2 ch, 192 Кбит/с
Cубтитры: отсутствуют
Общее
Уникальный идентификатор : 183140170231030233724523938580859879646 (0x89C7838788515A46B12B7ACEC0B680DE)
Полное имя : F:\Вагончик мой дальний\Vagonchik moj dalnyj.2013.SATRip-AVC.[pirat.ca]\01.Vagonchik moj dalnyj.2013.SATRip-AVC.[pirat.ca].mkv
Формат : Matroska
Версия формата : Version 2
Размер файла : 706 Мбайт
Продолжительность : 51 м.
Общий поток : 1933 Кбит/сек
Дата кодирования : UTC 2016-07-19 03:33:56
Программа кодирования : mkvmerge v6.1.0 ('Old Devil') built on Mar 4 2013 09:10:42
Библиотека кодирования : libebml v1.3.0 + libmatroska v1.4.0
Видео
Идентификатор : 1
Формат : AVC
Формат/Информация : Advanced Video Codec
Профиль формата : [email protected]
Параметр CABAC формата : Да
Параметр ReFrames формата : 9 кадров
Идентификатор кодека : V_MPEG4/ISO/AVC
Продолжительность : 51 м.
Битрейт : 1703 Кбит/сек
Ширина : 720 пикселей
Высота : 400 пикселей
Соотношение сторон : 16:9
Режим частоты кадров : Постоянный
Частота кадров : 25,000 кадров/сек
Цветовое пространство : YUV
Субдискретизация насыщенности : 4:2:0
Битовая глубина : 8 бит
Тип развёртки : Прогрессивная
Бит/(Пиксели*Кадры) : 0.236
Размер потока : 622 Мбайт (88%)
Библиотека кодирования : x264 core 130 r2273 b3065e6
Настройки программы : cabac=1 / ref=9 / deblock=1:-3:-3 / analyse=0x3:0x133 / me=umh / subme=9 / psy=1 / psy_rd=1.00:0.15 / mixed_ref=1 / me_range=32 / chroma_me=1 / trellis=2 / 8x8dct=1 / cqm=0 / deadzone=21,11 / fast_pskip=0 / chroma_qp_offset=-3 / threads=6 / lookahead_threads=1 / sliced_threads=0 / nr=0 / decimate=1 / interlaced=fake / bluray_compat=0 / constrained_intra=0 / bframes=9 / b_pyramid=2 / b_adapt=2 / b_bias=0 / direct=1 / weightb=1 / open_gop=0 / weightp=2 / keyint=250 / keyint_min=25 / scenecut=40 / intra_refresh=0 / rc=crf / mbtree=0 / crf=17.0 / qcomp=0.60 / qpmin=0 / qpmax=69 / qpstep=4 / ip_ratio=1.40 / pb_ratio=1.30 / aq=2:1.00
Default : Да
Forced : Нет
Цветовой диапазон : Limited
Основные цвета : BT.601 PAL
Характеристики трансфера : BT.470 System B, BT.470 System G
Коэффициенты матрицы : BT.601
Аудио
Идентификатор : 2
Формат : AC-3
Формат/Информация : Audio Coding 3
Расширение режима : CM (complete main)
Параметр Endianness формата : Big
Идентификатор кодека : A_AC3
Продолжительность : 51 м.
Вид битрейта : Постоянный
Битрейт : 192 Кбит/сек
Каналы : 2 канала
Расположение каналов : Front: L R
Частота : 48,0 КГц
Частота кадров : 31,250 кадров/сек (1536 spf)
Метод сжатия : С потерями
Размер потока : 70,2 Мбайт (10%)
Default : Да
Forced : Нет
Download / Скачать

Хотите скачать бесплатно? Зарегистрируйтесь на сайте (ссылка на регистрацию). Pirat.ca - самый быстрый торрент трекер в рунете!

Как скачивать  ·   Что такое торрент  ·   Рейтинг и ограничения

Drummer901

Штурман

Пост 26-Июл-2016 14:04 (спустя 6 дней)

[Q] 

Последние 12 минут четвертой серии вместо звукоряда, помехи, напоминающие пулеметную очередь....
[Профиль]  [ЛС] 
Показать сообщения:    
Ответить на тему

Текущее время: Сегодня 09:57

Часовой пояс: GMT + 4



Вы не можете начинать темы
Вы не можете отвечать на сообщения
Вы не можете редактировать свои сообщения
Вы не можете удалять свои сообщения
Вы не можете голосовать в опросах
Вы не можете прикреплять файлы к сообщениям
Вы не можете скачивать файлы

▼ Вниз