ML
     
  Уважаемый Гость!
Вы можете поддержать проект и зарегистрироваться у наших партнеров - онлайн-стратегия MyLands. При регистрации в игре Вы получите код, который сможете активировать после регистрации на pirat.ca и получить 1000 дублонов.

Ваш код:
21acd5966619d49ad0b90c3305467b4646cc11a8
 
     

Завтрак у папы (Мария Кравченко) [2015 г., комедия, WEB-DLRip] Original (RUS)[iTunes]

Ответить на тему
 
Автор
Сообщение

Пост 21-Июл-2016 07:31

[Q] 

aleksey99

--Завтрак у папы-- Производство: Россия, All Media Company
Год выпуска: 2015 г.
Жанр: комедия
Продолжительность: 01:31:52--Мировая премьера: 24 июня 2016
Российская премьера: 23 июня 2016, «Централ Партнершип»--Режиссер: Мария Кравченко--В ролях: Юрий Колокольников, Катерина Шпица, Луиза-Габриэла Бровина, Полина Максимова, Валентин Пелка, Кристина Шаповалова, Никита Тарасов, Михаил Полицеймако--Описание: У молодого, привлекательного и самовлюбленного Саши Титова в жизни, на первый взгляд, все сложилось как нельзя лучше: он успешный креативный директор рекламного агентства и полностью удовлетворен ни к чему не обязывающими отношениями с коллегой Оксаной Тарелкиной. Но однажды утром на пороге своего пентхауса Саша встречает милую десятилетнюю девчушку Алю, которая представляется его дочкой. Ворвавшись в жизнь Саши, смышленая и любознательная Аля серьезно намерена надолго в ней обосноваться. Но готов ли Саша принять все сюрпризы, приготовленные судьбой, и в корне изменить привычную холостяцкую жизнь?-- --Качество видео: WEB-DLRip
Контейнер: AVI
Видео кодек: XviD
Аудио кодек: AC3
Видео: 720x304 (2.37:1), 24 fps, XviD build 50 ~1736 kbps avg, 0.33 bit/pixel
Аудио: 48 kHz, AC3 2 ch, ~384 kbps
Cубтитры: отсутствуют
Общее
Полное имя : H:\Torrent2\ZavTrak.U.Papo.2O16.O.WEB-DLRip.14OOMB.avi
Формат : AVI
Формат/Информация : Audio Video Interleave
Размер файла : 1,37 Гбайт
Продолжительность : 1 ч. 31 м.
Общий поток : 2130 Кбит/сек
Программа кодирования : VirtualDubMod 1.5.10.2 (build 2540/release)
Библиотека кодирования : VirtualDubMod build 2540/release
Видео
Идентификатор : 0
Формат : MPEG-4 Visual
Профиль формата : Advanced [email protected]
Параметр BVOP формата : 2
Параметр QPel формата : Нет
Параметр GMC формата : Без точки перехода
Параметр матрицы формата : Default (MPEG)
Идентификатор кодека : XVID
Идентификатор кодека/Подсказка : XviD
Продолжительность : 1 ч. 31 м.
Битрейт : 1737 Кбит/сек
Ширина : 720 пикселей
Высота : 304 пикселя
Соотношение сторон : 2,35:1
Частота кадров : 24,000 кадра/сек
Цветовое пространство : YUV
Субдискретизация насыщенности : 4:2:0
Битовая глубина : 8 бит
Тип развёртки : Прогрессивная
Метод сжатия : С потерями
Бит/(Пиксели*Кадры) : 0.331
Размер потока : 1,11 Гбайт (82%)
Библиотека кодирования : XviD 1.2.1 (UTC 2008-12-04)
Аудио
Идентификатор : 1
Формат : AC-3
Формат/Информация : Audio Coding 3
Расширение режима : CM (complete main)
Параметр Endianness формата : Big
Идентификатор кодека : 2000
Продолжительность : 1 ч. 31 м.
Вид битрейта : Постоянный
Битрейт : 384 Кбит/сек
Каналы : 2 канала
Расположение каналов : Front: L R
Частота : 48,0 КГц
Частота кадров : 31,250 кадров/сек (1536 spf)
Метод сжатия : С потерями
Размер потока : 252 Мбайт (18%)
Выравнивание : Разделение по промежуткам
Продолжительность промежутка : 42 мс. (1,00 видеокадр)
Время предзагрузки промежутка : 500 мс.
Трейлер
Download / Скачать

Хотите скачать бесплатно? Зарегистрируйтесь на сайте (ссылка на регистрацию). Pirat.ca - самый быстрый торрент трекер в рунете!

Как скачивать  ·   Что такое торрент  ·   Рейтинг и ограничения

sanches76

Штурман

Пост 21-Июл-2016 19:36 (спустя 12 часов)

[Q] 

Лёгкая семейная комедия. Самое то, скоротать вечер с домашними!
[Профиль]  [ЛС] 

Maks_e

Корсар

69

Пост 31-Июл-2016 07:19 (спустя 9 дней)

[Q] 

Спасибо!!! Лови бочку
[Профиль]  [ЛС] 

ТАЛИ

Корсар

Пост 02-Авг-2016 18:22 (спустя 2 дня 11 часов)

[Q] 

Натырено, конечно, из кучи фильмов подобного жанра. Но я оригинальности и не ожидала, поэтому вполне себе приятно посмотрела на периодической перемотке. Мне нравится, что у нас снимают, хоть и глупые и сильно второсортные, но яркие и позитивные фильмы. А то ведь десятилетиями это считалось дурновкусием и режиссеры поголовно клепали депрессивную, псевдоконцептуальную чернуху и всякие унылые социальные драмы. Сейчас нам одного "Левиафана" в год за глаза хватает, больше не надо - перебор:)
Что-то меня не туда унесло... Короче, смотрим, разгружаем мозги:)
[Профиль]  [ЛС] 

grosboy

Флибустьер

Пост 24-Авг-2016 10:55 (спустя 21 день)

[Q] 

Хороший позитивный фильм. Такие фильмы нужны. Иногда хочется посмотреть простой, лёгкий, не замысловатый фильм с простым сюжетом и хэпиэнтом. Здорово что отечественные режисёры много снимают в таком жанре семейная комедия. Автору респект!!! Мне понравилось

_________________
Щастье есть - его не может не быть...
[Профиль]  [ЛС] 

Пост 17-Сен-2016 21:28 (спустя 24 дня)

Топик был перенесен из форума Новинки (HD|DVD|BD| TV|SAT|PDTV| - Rips) в форум Российские фильмы
aleksey99
 

dambrina

Флибустьер

Пост 25-Окт-2016 20:56 (спустя 2 месяца 1 день)

[Q] 

Спасибо!!! любителям семейного кино советую +)
[Профиль]  [ЛС] 

kinstintin

Гроза морей

Пост 27-Окт-2016 21:16 (спустя 2 дня)

[Q] 

Спасибо!!!
Автору респект!!!
[Профиль]  [ЛС] 
Показать сообщения:    
Ответить на тему

Текущее время: Сегодня 23:19

Часовой пояс: GMT + 4



Вы не можете начинать темы
Вы не можете отвечать на сообщения
Вы не можете редактировать свои сообщения
Вы не можете удалять свои сообщения
Вы не можете голосовать в опросах
Вы не можете прикреплять файлы к сообщениям
Вы не можете скачивать файлы

▼ Вниз