ML
     
  Уважаемый Гость!
Вы можете поддержать проект и зарегистрироваться у наших партнеров - онлайн-стратегия MyLands. При регистрации в игре Вы получите код, который сможете активировать после регистрации на pirat.ca и получить 1000 дублонов.

Ваш код:
8b29d0f8cd61fe457e59e7df0aa1fab41a2b88b9
 
     

2 дня (Авдотья Смирнова) [2011 г., драма, мелодрама, комедия, BDRip]

Ответить на тему
 
Автор
Сообщение

Пост 28-Июл-2016 18:28

[Q] 

somik

Легенда

-2 дня-- Производство: Россия, Art Pictures Studio, Централ Партнершип
Режиссер: Авдотья Смирнова
Жанр: драма, мелодрама, комедия
Год выпуска: 2011 г.
Продолжительность: 01:29:43
Российская премьера: 8 сентября 2011
Дата выхода DVD: 27 октября 2011, «Новый Диск»
Дата выхода Blu-Ray: 8 декабря 2011, «Новый Диск»-В ролях: Ксения Раппопорт, Фёдор Бондарчук, Ирина Розанова, Евгений Муравич, Геннадий Смирнов, Леся Кудряшова, Константин Шелестун, Анна Михалкова-Описание: Петр Дроздов, высокопоставленный чиновник из Москвы, приезжает в провинциальный музей полузабытого классика русской литературы по просьбе губернатора области, который хочет отнять у музея земельные владения и построить на них новую резиденцию. И поначалу Дроздов поддерживает это решение, но знакомство с Машей, молодым литературоведом, работающей в музее заместителем директора, меняет его взгляд не только на эту проблему, но и вообще на всю свою жизнь…-Сэмпл КиноПоиск
Качество видео: BDRip
Контейнер: AVI
Видео кодек: XviD
Аудио кодек: AC3
Видео: 720x304 (2.37:1), 25 fps, XviD MPEG-4 ~1859 kbps avg, 0.34 bit/pixel
Аудио: 48 kHz, AC3 Dolby Digital, 3/2 (L,C,R,l,r) + LFE ch, ~448 kbps
Cубтитры: отсутствуют
Съёмки фильма проходили на территории усадьбы «Абрамцево».
Золотой орел, 2012 год
Победитель (2):
Лучшая женская роль ( Ксения Раппопорт )
Лучшая мужская роль ( Фёдор Бондарчук )
Номинации (3):
Лучший фильм
Лучшая женская роль второго плана (Ирина Розанова)
Лучшая работа оператора
Ника, 2012 год
Номинации (2):
Лучшая женская роль (Ксения Раппопорт)
Лучшая женская роль второго плана (Ирина Розанова)
Жорж, 2012 год
Победитель (1):
За укрепление веры в российское кино
«Алло, музээй!»
Сразу же после просмотра этого фильма, мне захотелось посмотреть его снова.
Федор Бондарчук, раньше горячо мной нелюбимый… (а раньше о нем я была почти такого же впечатления как и героиня фильма) просто очаровал меня. А Ксения Раппопорт влюбляет в себя своей непосредственностью, искренностью. Такая очаровательная в своей неуклюжести и такая настоящая. Да все герои — это не просто дополнительные персонажи, это продуманные образы.
Доброе, качественное, умное кино — это то, чего нам всем сегодня так не хватало. Вот именно этого конкретного фильма, кажется и не хватало. С вот таким вот именно юмором. Юмор простой и так непохожий на этот заезженные «камеди-шутки» чуть ниже пояса.
Аплодисменты в кинотеатре раздаются не часто, только если зацепило за живое и запало в душу людям. Титры фильма «2 дня» шли под несмолкаемые аплодисменты.
10 из 10
Общее
Полное имя : F:\2 дня\2 dnya.2011.BDRip.[pirat.ca].avi
Формат : AVI
Формат/Информация : Audio Video Interleave
Размер файла : 1,45 Гбайт
Продолжительность : 1 ч. 29 м.
Общий поток : 2318 Кбит/сек
Программа кодирования : VirtualDubMod 1.5.10.2 (build 2540/release)
Библиотека кодирования : VirtualDubMod build 2540/release
Видео
Идентификатор : 0
Формат : MPEG-4 Visual
Профиль формата : Advanced [email protected]
Параметр BVOP формата : 1
Параметр QPel формата : Нет
Параметр GMC формата : Без точки перехода
Параметр матрицы формата : Выборочная
Идентификатор кодека : XVID
Идентификатор кодека/Подсказка : XviD
Продолжительность : 1 ч. 29 м.
Битрейт : 1860 Кбит/сек
Ширина : 720 пикселей
Высота : 304 пикселя
Соотношение сторон : 2,35:1
Частота кадров : 25,000 кадров/сек
Цветовое пространство : YUV
Субдискретизация насыщенности : 4:2:0
Битовая глубина : 8 бит
Тип развёртки : Прогрессивная
Метод сжатия : С потерями
Бит/(Пиксели*Кадры) : 0.340
Размер потока : 1,17 Гбайт (80%)
Библиотека кодирования : XviD 72
Аудио
Идентификатор : 1
Формат : AC-3
Формат/Информация : Audio Coding 3
Расширение режима : CM (complete main)
Параметр Endianness формата : Big
Идентификатор кодека : 2000
Продолжительность : 1 ч. 29 м.
Вид битрейта : Постоянный
Битрейт : 448 Кбит/сек
Каналы : 6 каналов
Расположение каналов : Front: L C R, Side: L R, LFE
Частота : 48,0 КГц
Частота кадров : 31,250 кадров/сек (1536 spf)
Метод сжатия : С потерями
Размер потока : 288 Мбайт (19%)
Выравнивание : Разделение по промежуткам
Продолжительность промежутка : 40 мс. (1,00 видеокадр)
Время предзагрузки промежутка : 500 мс.
Download / Скачать

Хотите скачать бесплатно? Зарегистрируйтесь на сайте (ссылка на регистрацию). Pirat.ca - самый быстрый торрент трекер в рунете!

Как скачивать  ·   Что такое торрент  ·   Рейтинг и ограничения

dot44

Шкипер

Пост 30-Июл-2016 09:17 (спустя 1 день 14 часов)

[Q] 

Смотрибельно.
Спасибо!!!
[Профиль]  [ЛС] 
Показать сообщения:    
Ответить на тему

Текущее время: Сегодня 21:24

Часовой пояс: GMT + 4



Вы не можете начинать темы
Вы не можете отвечать на сообщения
Вы не можете редактировать свои сообщения
Вы не можете удалять свои сообщения
Вы не можете голосовать в опросах
Вы не можете прикреплять файлы к сообщениям
Вы не можете скачивать файлы

▼ Вниз