ML
     
  Уважаемый Гость!
Вы можете поддержать проект и зарегистрироваться у наших партнеров - онлайн-стратегия MyLands. При регистрации в игре Вы получите код, который сможете активировать после регистрации на pirat.ca и получить 1000 дублонов.

Ваш код:
4855957e17f50c5c1236a0f8c4492b2b0bba00a0
 
     

Простая история (Виктор Татарский) [2016 г., Боевик, военный, драма, мелодрама, WEB-DLRip]

Ответить на тему
 
Автор
Сообщение

Пост 25-Авг-2016 16:26

[Q] 

somik

Легенда

-Простая история-- Производство: Россия, Фонд кино
Режиссер: Виктор Татарский
Жанр: Боевик, военный, драма, мелодрама
Год выпуска: 2016 г.
Продолжительность: 01:30:02
Российская премьера: 18 августа 2016, «АКМ»
В ролях: Сергей Марин, Анастасия Тюнина, Екатерина Проскурина, Михаил Елисеев, Евгений Сидихин, Юсуп Бахшиев, Евгений Добряков, Алексей Красноцветов, Дмитрий Быковский-Ромашов-Описание: Вячеслав Воробьев — боец особого подразделения ОМОН. По стечению обстоятельств после одного из спецзаданий сослуживцы и командиры начинают подозревать Вячеслава в гибели товарища. Желая реабилитироваться перед ними и вновь заслужить доверие, главный герой вызывается во внеочередную опасную командировку в город Назрань. Там он знакомится с девушкой Наташей, в которую влюбляется с первого взгляда. Наташа принимает ухаживания молодого человека, и у них завязываются отношения. Но Слава скрывает место своей работы и цели командировки. Правду Наташа узнает только в тот момент, когда Слава отправляется на самое опасное боевое задание в своей жизни.-Сэмпл КиноПоиск
Качество видео: WEB-DLRip
Контейнер: AVI
Видео кодек: XviD
Аудио кодек: AC3
Видео: 720x304 (2.37:1), 25 fps, XviD build 50 ~1971 kbps avg, 0.36 bit/pixel
Аудио: 48 kHz, AC3 Dolby Digital, 2/0 (L,R) ch, ~192 kbps
Общее
Полное имя : D:\D\Простая история (2016)\Prostaya istoriya.2016.WEB-DLRip.[pirat.ca].avi
Формат : AVI
Формат/Информация : Audio Video Interleave
Размер файла : 1,37 Гбайт
Продолжительность : 1 ч. 30 м.
Общий поток : 2173 Кбит/сек
Название фильма : Prostaya istoriya.2016.WEB-DLRip.[pirat.ca]
Программа кодирования : VirtualDubMod 1.5.10.3 | www.virtualdub-fr.org || (build 2550/release)
Видео
Идентификатор : 0
Формат : MPEG-4 Visual
Профиль формата : Advanced [email protected]
Параметр BVOP формата : 2
Параметр QPel формата : Нет
Параметр GMC формата : Без точки перехода
Параметр матрицы формата : Default (MPEG)
Идентификатор кодека : XVID
Идентификатор кодека/Подсказка : XviD
Продолжительность : 1 ч. 30 м.
Битрейт : 1972 Кбит/сек
Ширина : 720 пикселей
Высота : 304 пикселя
Соотношение сторон : 2,35:1
Частота кадров : 25,000 кадров/сек
Цветовое пространство : YUV
Субдискретизация насыщенности : 4:2:0
Битовая глубина : 8 бит
Тип развёртки : Прогрессивная
Метод сжатия : С потерями
Бит/(Пиксели*Кадры) : 0.360
Размер потока : 1,24 Гбайт (91%)
Библиотека кодирования : XviD 1.2.1 (UTC 2008-12-04)
Аудио
Идентификатор : 1
Формат : AC-3
Формат/Информация : Audio Coding 3
Расширение режима : CM (complete main)
Параметр Endianness формата : Big
Идентификатор кодека : 2000
Продолжительность : 1 ч. 30 м.
Вид битрейта : Постоянный
Битрейт : 192 Кбит/сек
Каналы : 2 канала
Расположение каналов : Front: L R
Частота : 48,0 КГц
Частота кадров : 31,250 кадров/сек (1536 spf)
Метод сжатия : С потерями
Размер потока : 124 Мбайт (9%)
Выравнивание : Разделение по промежуткам
Продолжительность промежутка : 40 мс. (1,00 видеокадр)
Время предзагрузки промежутка : 500 мс.
Download / Скачать

Хотите скачать бесплатно? Зарегистрируйтесь на сайте (ссылка на регистрацию). Pirat.ca - самый быстрый торрент трекер в рунете!

Как скачивать  ·   Что такое торрент  ·   Рейтинг и ограничения

Stalker_29

Корсар

Пост 25-Авг-2016 19:19 (спустя 2 часа 53 минуты)

[Q] 

Глянем что это, спс
[Профиль]  [ЛС] 

paladinxxx

Лоцман

Пост 27-Авг-2016 01:08 (спустя 1 день 5 часов)

[Q] 

вроде не плохой фильм- жизнено
[Профиль]  [ЛС] 

RozM

Морской Волк

Пост 29-Авг-2016 15:54 (спустя 2 дня 14 часов)

[Q] 

Нормальный фильм. Смотреть можно. Действительно простая жизненная история.
[Профиль]  [ЛС] 

andreiex

Шкипер

Пост 02-Сен-2016 10:37 (спустя 3 дня)

[Q] 

Захотелось какого-то нашего фильма посмотреть, так что возьму, если уж рекомендуют. Спасибо за раздачу!
Спасибо!!!
Посмотрю на выходных, отпишусь (наверное)
[Профиль]  [ЛС] 

Мулька

Шкипер

Пост 04-Сен-2016 18:01 (спустя 2 дня 7 часов)

[Q] 

мило, не наиграно, хороший семейный фильм Зуб даю...
Мне понравилось
[Профиль]  [ЛС] 

logr

Морской Волк

151

Пост 04-Сен-2016 18:41 (спустя 40 минут)

[Q] 

Витя похоже на полный метр переключился с сериалов...
PS: Режиссёр мой однокурсник.
[Профиль]  [ЛС] 

Пост 27-Сен-2016 21:36 (спустя 23 дня)

Топик был перенесен из форума Новинки (HD|DVD|BD| TV|SAT|PDTV| - Rips) в форум Российские фильмы
aleksey99
 
Показать сообщения:    
Ответить на тему

Текущее время: Сегодня 06:12

Часовой пояс: GMT + 4



Вы не можете начинать темы
Вы не можете отвечать на сообщения
Вы не можете редактировать свои сообщения
Вы не можете удалять свои сообщения
Вы не можете голосовать в опросах
Вы не можете прикреплять файлы к сообщениям
Вы не можете скачивать файлы

▼ Вниз