ML
     
  Уважаемый Гость!
Вы можете поддержать проект и зарегистрироваться у наших партнеров - онлайн-стратегия MyLands. При регистрации в игре Вы получите код, который сможете активировать после регистрации на pirat.ca и получить 1000 дублонов.

Ваш код:
21acd5966619d49ad0b90c3305467b4646cc11a8
 
     

Повелители снов (Ирина Багрова) [2016 г., комедия, фэнтези, WEB-DLRip] Original (Rus)

Ответить на тему
 
Автор
Сообщение

Пост 09-Сен-2016 00:44

[Q] 

ara1205

-Повелители снов-- Производство: Россия
Год выпуска: 2016 г.
Жанр: комедия, фэнтези
Продолжительность: 01:16:44
Российская премьера: 18 августа 2016-Режиссер: Ирина Багрова-В ролях: Александр Балуев, Дмитрий Ендальцев, Анастасия Пронина, Дмитрий Соколов, Софья Лебедева, Валентина Оленева, Сергей Степанченко, Светлана Бельская, Михаил Водзуми, Илья Малаков-Описание: О них не пишут в газетах, но они существуют! Да-да! Специалисты «Корпорации снов» предложат сон на ваш вкус, а если надо, осуществят его передачу на расстоянии. Это ноу-хау перевернет мир, как телефон или интернет.
Но чем закончится безумный и опасный эксперимент?!- -Качество видео: WEB-DLRip
Контейнер: AVI
Видео кодек: XviD
Аудио кодек: AC3
Видео: 720x304 (2,35:1), 25 fps, XviD ~ 1768 kbps avg, 0.323 bit/pixel
Аудио: AC3, 48 kHz, 6 ch, ~384.00 kbps avg
Cубтитры: отсутствуют-
Общее
Полное имя : C:\Users\Roman\Pictures\новинки\Poveliteli.Snov.2O16.O.WEB-DLRip.[pirat.ca].avi
Формат : AVI
Формат/Информация : Audio Video Interleave
Размер файла : 1,37 Гбайт
Продолжительность : 1 ч. 16 м.
Общий поток : 2550 Кбит/сек
Программа кодирования : VirtualDubMod 1.5.10.2 (build 2540/release)
Библиотека кодирования : VirtualDubMod build 2540/release
Видео
Идентификатор : 0
Формат : MPEG-4 Visual
Профиль формата : Advanced [email protected]
Параметр BVOP формата : 2
Параметр QPel формата : Нет
Параметр GMC формата : Без точки перехода
Параметр матрицы формата : Default (MPEG)
Идентификатор кодека : XVID
Идентификатор кодека/Подсказка : XviD
Продолжительность : 1 ч. 16 м.
Битрейт : 1768 Кбит/сек
Ширина : 720 пикселей
Высота : 304 пикселя
Соотношение сторон : 2,35:1
Частота кадров : 25,000 кадров/сек
Цветовое пространство : YUV
Субдискретизация насыщенности : 4:2:0
Битовая глубина : 8 бит
Тип развёртки : Прогрессивная
Метод сжатия : С потерями
Бит/(Пиксели*Кадры) : 0.323
Размер потока : 970 Мбайт (69%)
Библиотека кодирования : XviD 1.2.1 (UTC 2008-12-04)
Аудио #1
Идентификатор : 1
Формат : AC-3
Формат/Информация : Audio Coding 3
Расширение режима : CM (complete main)
Параметр Endianness формата : Big
Идентификатор кодека : 2000
Продолжительность : 1 ч. 16 м.
Вид битрейта : Постоянный
Битрейт : 384 Кбит/сек
Каналы : 6 каналов
Расположение каналов : Front: L C R, Side: L R, LFE
Частота : 48,0 КГц
Битовая глубина : 16 бит
Метод сжатия : С потерями
Размер потока : 211 Мбайт (15%)
Выравнивание : Разделение по промежуткам
Продолжительность промежутка : 40 мс. (1,00 видеокадр)
Время предзагрузки промежутка : 500 мс.
-
-
-
Download / Скачать

Хотите скачать бесплатно? Зарегистрируйтесь на сайте (ссылка на регистрацию). Pirat.ca - самый быстрый торрент трекер в рунете!

Как скачивать  ·   Что такое торрент  ·   Рейтинг и ограничения

realyu

Корсар

Пост 09-Сен-2016 03:19 (спустя 2 часа 34 минуты)

[Q] 

из описания:
Но чем закончится безумный и опасный эксперимент?!
... да как обычно - распилом бабла, выделенного минкультуры на кино.
[Профиль]  [ЛС] 

swallow13

Штурман

Пост 09-Сен-2016 03:34 (спустя 15 минут)

[Q] 

надо понимать фильмец - не ахти?
[Профиль]  [ЛС] 

OLEG_PS2009

Флибустьер

Пост 14-Сен-2016 09:55 (спустя 5 дней)

[Q] 

Ну и че??? 129 человек скачали, а отписаться религия не позволяет??? Где отзывы???
[Профиль]  [ЛС] 

usya5

Морской Волк

Пост 14-Сен-2016 14:26 (спустя 4 часа)

[Q] 

скачавших уже 132, а отзывов как не было, так и нет!?!
[Профиль]  [ЛС] 

LEXo

Лоцман

Пост 14-Сен-2016 17:13 (спустя 2 часа 46 минут)

[Q] 

Трезвым не смотреть, категорически!!! Как и тряпичный союз, можно блевануть. Жене понравилось ОНО....
[Профиль]  [ЛС] 

otodrakul

Лоцман

Пост 17-Сен-2016 20:03 (спустя 3 дня)

[Q] 

Как и тряпичный союз, можно блевануть.
тряпичный союз - отличное кино, если блюете от фильма, сходите к врачу, проверьтесь.
только сомневаюсь, что эти два фильма можно сравнивать
[Профиль]  [ЛС] 

pavlin2000

Штурман

Пост 14-Ноя-2016 19:06 (спустя 1 месяц 26 дней)

[Q] 

думал там Николай Валуев , а там оказывается Александр Балуев
[Профиль]  [ЛС] 
Показать сообщения:    
Ответить на тему

Текущее время: Сегодня 23:15

Часовой пояс: GMT + 4



Вы не можете начинать темы
Вы не можете отвечать на сообщения
Вы не можете редактировать свои сообщения
Вы не можете удалять свои сообщения
Вы не можете голосовать в опросах
Вы не можете прикреплять файлы к сообщениям
Вы не можете скачивать файлы

▼ Вниз