ML
     
  Уважаемый Гость!
Вы можете поддержать проект и зарегистрироваться у наших партнеров - онлайн-стратегия MyLands. При регистрации в игре Вы получите код, который сможете активировать после регистрации на pirat.ca и получить 1000 дублонов.

Ваш код:
ef8b3e8cd07bec918273586d22e5aaf18e0ae925
 
     

Бой с тенью 3D: Последний раунд (Алексей Сидоров) [ 2011 , Россия , боевик, драма, криминал , BDRip]

Ответить на тему
 
Автор
Сообщение

Пост 02-Фев-2012 04:40

[Q] 

Smaq

Морской Волк

Бой с тенью 3D: Последний раунд«Последний раунд решает всё»-
Страна: Россия
Жанр: боевик, драма, криминал, приключения
Год выпуска: 2011
Продолжительность: 02:06:36-Перевод: Не требуется
Режиссер: Алексей Сидоров
В ролях:
Денис Никифоров (Артем Колчин), Андрей Панин (Валиев), Елена Панова (Вика), Бату Хасиков (Куэрте), Михаил Горевой, Дмитрий Шевченко (Нечаев), Ольга Дибцева, Софья Мицкевич (Полина), Сергей Рябых (Олег), Шакрит Ямнарм (Джоу Ло), Мария Куркова (Юля, девушка боксера Олега), Андрей Глущенко (хореограф)-Описание: Боксер-чемпион Артем Колчин достиг всех мыслимых вершин и стал национальным героем. На ринг он больше не выходит, предпочитая тренерскую работу и бурную светскую жизнь с постоянным мельканием на ТВ, тусовками и интрижками. А дома его по утрам встречают дочка и жена Вика, которая больше не узнает в нем того Артема, которого она когда-то полюбила…
Внешне благополучному существованию Колчина приходит конец, когда его подопечного чуть не убивает в бою знаменитый Куэрте. Артем подозревает, что тот использует некую запрещенную технику. За доказательствами ему приходится отправиться в Гонконг, где его ждет старый знакомый Вагит Валиев: он знает о Куэрте то, чего не знает больше ни один человек. Чтобы победить, Артему придется снова выйти на ринг.- -СЭМПЛ
Качество: BDRip
Контейнер: AVI
Видео: XviD, 720x304 (2.35:1), 1860 kbps, 23,976 fps, 0,355 bpp
Аудио: AC3 / 5.1 / 48 kHz / 448 kbps / 16 bit-
General
Complete name : D:\бой с тенью\Boj.s.tenju-3D.Poslednij.raund.2011.XviD.BDRip.avi
Format : AVI
Format/Info : Audio Video Interleave
Format profile : OpenDML
File size : 2.05 GiB
Duration : 2h 6mn
Overall bit rate : 2 321 Kbps
Writing application : VirtualDubMod 1.5.10.2 (build 2540/release)
Writing library : VirtualDubMod build 2540/release
Video
ID : 0
Format : MPEG-4 Visual
Format profile : Advanced [email protected]
Format settings, BVOP : 1
Format settings, QPel : No
Format settings, GMC : No warppoints
Format settings, Matrix : Default (H.263)
Codec ID : XVID
Codec ID/Hint : XviD
Duration : 2h 6mn
Bit rate : 1 861 Kbps
Width : 720 pixels
Height : 304 pixels
Display aspect ratio : 2.35:1
Frame rate : 23.976 fps
Color space : YUV
Chroma subsampling : 4:2:0
Bit depth : 8 bits
Scan type : Progressive
Compression mode : Lossy
Bits/(Pixel*Frame) : 0.355
Stream size : 1.65 GiB (80%)
Writing library : XviD 1.2.0.dev47 (UTC 2006-11-01)
Audio
ID : 1
Format : AC-3
Format/Info : Audio Coding 3
Mode extension : CM (complete main)
Codec ID : 2000
Duration : 2h 6mn
Bit rate mode : Constant
Bit rate : 448 Kbps
Channel(s) : 6 channels
Channel positions : Front: L C R, Side: L R, LFE
Sampling rate : 48.0 KHz
Bit depth : 16 bits
Compression mode : Lossy
Stream size : 406 MiB (19%)
Alignment : Split accross interleaves
Interleave, duration : 42 ms (1.00 video frame)
Interleave, preload duration : 500 ms
Download / Скачать

Хотите скачать бесплатно? Зарегистрируйтесь на сайте (ссылка на регистрацию). Pirat.ca - самый быстрый торрент трекер в рунете!

Как скачивать  ·   Что такое торрент  ·   Рейтинг и ограничения

Пост 02-Фев-2012 07:23 (спустя 2 часа 43 минуты)

Топик был перенесен из форума Художественные фильмы (Зарубежное кино) в форум Новинки (HD|DVD|BD|TV|SAT|PDTV| - Rips)

Skinwalker
 

glazik

Шкипер

53

Пост 02-Фев-2012 17:25 (спустя 12 часов)

[Q] 

Видимо перед созданем фильма ребята насмотрелись фантатики... ну а так ничяво, можно посмотреть.
[Профиль]  [ЛС] 

Bismuth

Морской Волк

5

Пост 04-Фев-2012 19:06 (спустя 2 дня 1 час)

[Q] 

фантатики.
Это что из нового жанра ДА?))))

_________________
Подпись отключена за нарушение правил форума
[Профиль]  [ЛС] 

KOS1612

Корсар

Пост 07-Фев-2012 21:23 (спустя 3 дня)

[Q] 

[Профиль]  [ЛС] 

FLY007

Штурман

Пост 08-Фев-2012 16:59 (спустя 19 часов)

[Q] 


_________________
Веду блог - www.csorg.ru
(^^,)
PS. Пока комп включен - раздаю! :)
[Профиль]  [ЛС] 

Sead_13

Шкипер

157

Пост 08-Фев-2012 17:23 (спустя 23 минуты)

[Q] 


_________________

a.k.a. T-Pain Controll
[Профиль]  [ЛС] 

Пост 20-Фев-2012 10:57 (спустя 11 дней)

Топик был перенесен из форума Новинки (HD|DVD|BD|TV|SAT|PDTV| - Rips) в форум Российские фильмы

Skinwalker
 

Torer0

Штурман

Пост 22-Фев-2012 13:56 (спустя 13 дней)

[Q] 

[Профиль]  [ЛС] 

CHARLI2236

1098

Пост 12-Сен-2013 12:34 (спустя 1 год 6 месяцев)

[Q] 

подключусь AntiZip 30

_________________
[Профиль]  [ЛС] 
Показать сообщения:    
Ответить на тему

Текущее время: Сегодня 18:41

Часовой пояс: GMT + 4



Вы не можете начинать темы
Вы не можете отвечать на сообщения
Вы не можете редактировать свои сообщения
Вы не можете удалять свои сообщения
Вы не можете голосовать в опросах
Вы не можете прикреплять файлы к сообщениям
Вы не можете скачивать файлы

▼ Вниз