ML
     
  Уважаемый Гость!
Вы можете поддержать проект и зарегистрироваться у наших партнеров - онлайн-стратегия MyLands. При регистрации в игре Вы получите код, который сможете активировать после регистрации на pirat.ca и получить 1000 дублонов.

Ваш код:
ef8b3e8cd07bec918273586d22e5aaf18e0ae925
 
     

Сладкое прощание Веры (Александра Бутор) [2015 г., драма, WEB-DLRip]

Ответить на тему
 
Автор
Сообщение

Пост 21-Сен-2016 08:48

[Q] 

somik

Легенда

-Сладкое прощание Веры-- Производство: Беларусь, Беларусьфильм
Режиссер: Александра Бутор
Жанр: драма
Год выпуска: 2015 г.
Продолжительность: 01:39:03
В ролях: Павел Южаков-Харланчук, Юозас Будрайтис, Неле Савиченко-Климене, Сергей Журавель, Анна Полупанова, Татьяна Бовкалова, Алёна Сидорова, Виктор Манаев, Елена Побегаева-Описание: Бывшая стюардесса Вера всю жизнь ждала свою единственную любовь — капитана авиалайнера, который так и не решился ради нее бросить свою семью. На склоне лет она остается без работы, родных, друзей, с мучительными воспоминаниями. Опасаясь внезапной смерти, зная, что о ней никто не сможет позаботиться, Вера решает заранее организовать собственные похороны и приглашает к себе агента из бюро ритуальных услуг. Им оказывается романтичный парень. Между героями вспыхивает любовь, в которой они не смеют признаться даже себе. Время, проведенное рядом с этим человеком, становится для Веры самым сладким в жизни…-Сэмпл КиноПоиск
Качество видео: WEB-DLRip
Контейнер: AVI
Видео кодек: XviD
Аудио кодек: MP3
Видео: 720x288 (2.50:1), 25 fps, XviD build 64 ~1838 kbps avg, 0.35 bit/pixel
Аудио: 44.100 kHz, MPEG Layer 3, 2 ch, ~256.00 kbps avg
Cубтитры: отсутствуют
Про веру, любовь и похоронное бюро.
Фильм мне понравился.
Понравился всем. Но в первую очередь картинкой. Давно не было у меня такого любования кадром. Оператор иногда просто изумительно играл со светом и красивыми вещами в кадре — бокалы, вино и конфеты никогда еще не были в кино так романтичны.
Вообще с деталями играли в кадре интересно и привлекательно. Пухом из подушки, которую героиня разорвала в начале фильма, мы любовались на протяжении всей истории. И надо сказать, что это было очень симпатично.
Одна немолодая, но весьма привлекательно, когда хочет, выглядящая (Неле Савиченко-Климене), особа вы ходит на пенсию и решает резко поменять личную жизнь. Ее кавалера играет Юозас Будрайтис, он до невозможности импозантен и представителен, хоть, увы, и стар, так что можно понять женщину, которая всю жизнь ждала, что он бросит жену и уйдет к ней.
Рассердившись, на жизнь, на себя и на сердце, которое стало шалить, решила заказать себе заранее похороны, памятник, ограду, все дела и вызвала представителя похоронного бюро.
Вот тут все и завертелось. Представителя похоронного бюро играет Павел Харламчук, белорусская звезда, ужасно талантливый актер, я давно за ним слежу.
Так вот этот Павел, то есть, Артем, очень симпатичный. А, главное, молодой, без жены и полон любопытства. Кто б на такого не повелся, тем более выйдя на пенсию.
Но, конечно, не все так просто. А целых два часа красивых хождений вокруг да около, мимолетных взглядов и глупых поступков. За ними приятно наблюдать, хотя и знаешь заранее, чем дело закончиться.
Хотя.
Фильм-то авторский, так что повернуться могло по-разному, но очень хотелось, чтобы все было хорошо.
Параллельно разворачивается еще несколько любовных линий, некоторые из них были совсем неожиданными. Например, уж кого-кого, но ресторатора, тоже вполне себе основательного и немолодого дяденьку, увидеть в роли героя любовника была не готова, но за него тоже порадовалась, хоть он, конечно, и врун. Или просто чуть-чуть не дождался.
Самая слабая линия оказалась с таксисткой. Когда она в четвертый раз завела ту же самую историю, это было скучно. И это был единственный крючок, который не сработал. Точнее, ружье, которое выстрелило холостым.
А так по всему фильму развешано ужасно много ружей и крючков.
И все они выстреливают и цепляются друг за друга, соединяясь в конце концов в витиеватую историю о странной любви среди красивых интерьеров и проливных дождей.
И пусть такая история в жизни не могла произойти, но в кино возможно все — гробовщик может полюбить стюардессу, а раем оказывается дом, затерянный на маленьком полуострове среди несуществующей белорусской реки.
Чудеса случаются.
9 из 10
Общее
Полное имя : J:\Сладкое прощание Веры\Sladoe proschanie Very.2014.WEBRip.[pirat.ca].avi
Формат : AVI
Формат/Информация : Audio Video Interleave
Профиль формата : OpenDML
Размер файла : 1,45 Гбайт
Продолжительность : 1 ч. 39 м.
Общий поток : 2101 Кбит/сек
Название фильма : Sladoe proschanie Very.2014.WEBRip.[pirat.ca]
Программа кодирования : XviD4PSP 6.0 / 54.29.105
Видео
Идентификатор : 0
Формат : xvid
Идентификатор кодека : xvid
Продолжительность : 1 ч. 39 м.
Битрейт : 1832 Кбит/сек
Ширина : 720 пикселей
Высота : 288 пикселей
Соотношение сторон : 2,500
Частота кадров : 25,000 кадров/сек
Тип развёртки : Прогрессивная
Бит/(Пиксели*Кадры) : 0.353
Размер потока : 1,27 Гбайт (87%)
Аудио
Идентификатор : 1
Формат : MPEG Audio
Версия формата : Version 1
Профиль формата : Layer 3
Идентификатор кодека : 55
Идентификатор кодека/Подсказка : MP3
Продолжительность : 1 ч. 39 м.
Вид битрейта : Постоянный
Битрейт : 256 Кбит/сек
Каналы : 2 канала
Частота : 44,1 КГц
Метод сжатия : С потерями
Размер потока : 181 Мбайт (12%)
Выравнивание : Соединение по промежуткам
Продолжительность промежутка : 26 мс. (0,65 видеокадр)
Библиотека кодирования : LAMELAME_MAJOR_VERSI
Download / Скачать

Хотите скачать бесплатно? Зарегистрируйтесь на сайте (ссылка на регистрацию). Pirat.ca - самый быстрый торрент трекер в рунете!

Как скачивать  ·   Что такое торрент  ·   Рейтинг и ограничения

Показать сообщения:    
Ответить на тему

Текущее время: Сегодня 18:36

Часовой пояс: GMT + 4



Вы не можете начинать темы
Вы не можете отвечать на сообщения
Вы не можете редактировать свои сообщения
Вы не можете удалять свои сообщения
Вы не можете голосовать в опросах
Вы не можете прикреплять файлы к сообщениям
Вы не можете скачивать файлы

▼ Вниз