ML
     
  Уважаемый Гость!
Вы можете поддержать проект и зарегистрироваться у наших партнеров - онлайн-стратегия MyLands. При регистрации в игре Вы получите код, который сможете активировать после регистрации на pirat.ca и получить 1000 дублонов.

Ваш код:
21acd5966619d49ad0b90c3305467b4646cc11a8
 
     

Правдивая история об Алых парусах (Александр Стеколенко) [2010 г., мелодрама, DVDRip]

Ответить на тему
 
Автор
Сообщение

Пост 22-Сен-2016 03:30

[Q] 

somik

Легенда

-Правдивая история об Алых парусах-- Производство: Украина, Интер Медиа Продакшн
Режиссер: Александр Стеколенко
Жанр: мелодрама
Год выпуска: 2010 г.
Продолжительность: 03:02:10
Российская премьера: 3 октября 2010
Дата выхода DVD: 5 июля 2012, «New Dream media»
В ролях: Вероника Иващенко, Александр Бухаров, Юрий Стоянов, Альберт Филозов, Михаил Светин, Семен Фурман, Эвклид Кюрдзидис-Описание: Портовый городок Лисс изменился, а его полноправным хозяином стал бургомистр Гез, которому предстоит сыграть в этой истории очень важную роль. Гезу во всем помогает его правая рука — Лемарен, готовый по первому приказу пустить в дело бригаду верных ему «юнцов». За происходящим в городе наблюдает таинственная фигура — консультант по особо важным вопросам Бам-Гран. Он что-то затевает, и это «что-то» явно имеет отношение к милой Ассоль, все ждущей своего принца…-Сэмпл КиноПоиск
Качество видео: DVDRip
Контейнер: AVI
Видео кодек: XviD
Аудио кодек: AC3
Видео: 720x400 (1.80:1), 25 fps, XviD MPEG-4 ~1587 kbps avg, 0.22 bit/pixel
Аудио: 48 kHz, AC3 Dolby Digital, 3/2 (L,C,R,l,r) + LFE ch, ~384 kbps
Cубтитры: отсутствуют
Ребята, надо верить в чудеса, Когда-нибудь весенним утром ранним Над океаном Алые взметнутся паруса…»
Фильм очень понравился. Спасибо за этот фильм.
Я читала произведения Александра Грина.
В фильме чувствуется атмосфера страны Гринландии, созданной писателем.
Создатели фильма умело передали атмосферу Крыма, ощущение морского ветра и солёных волн, плавно перерождающихся в мечту…
Эта сказка о любви рождается в страшном и жестоком мире, который врывается на экран прямо из сегодняшней жизни… из Крыма, Украины, из любого душного уголка на нашей планете, омываемого морской водой или океаном…
Вот так транзитом из прошлого, описанного в книгах Грина, суровая реальность переместилась в настоящее.
Но в этом циничном и алчном мире продолжают жить мечты, надежды, тёплые человеческие чувства, доброта, дружба, любовь и бескорыстие… и вера в свободу выбора пути в будущее.
Алые паруса в этом фильме значат гораздо больше, чем паруса любви.
Это Алые паруса надежды и веры в человека, в людей, в будущее…
бщее
Полное имя : E:\Правдивая история об Алых парусах\Pravdivaja istorija ob Alyh parusah.2010.[pirat.ca]\01.avi
Формат : AVI
Формат/Информация : Audio Video Interleave
Размер файла : 701 Мбайт
Продолжительность : 49 м.
Общий поток : 1981 Кбит/сек
Название фильма : 01
Программа кодирования : VirtualDubMod 1.5.10.2 (build 2540/release)
Видео
Идентификатор : 0
Формат : MPEG-4 Visual
Профиль формата : Advanced [email protected]
Параметр BVOP формата : Нет
Параметр QPel формата : Нет
Параметр GMC формата : Без точки перехода
Параметр матрицы формата : Выборочная
Идентификатор кодека : XVID
Идентификатор кодека/Подсказка : XviD
Продолжительность : 49 м.
Битрейт : 1588 Кбит/сек
Ширина : 720 пикселей
Высота : 400 пикселей
Соотношение сторон : 16:9
Частота кадров : 25,000 кадров/сек
Цветовое пространство : YUV
Субдискретизация насыщенности : 4:2:0
Битовая глубина : 8 бит
Тип развёртки : Прогрессивная
Метод сжатия : С потерями
Бит/(Пиксели*Кадры) : 0.221
Размер потока : 562 Мбайт (80%)
Библиотека кодирования : XviD 1.2.1 (UTC 2008-12-04)
Аудио
Идентификатор : 1
Формат : AC-3
Формат/Информация : Audio Coding 3
Расширение режима : CM (complete main)
Параметр Endianness формата : Big
Идентификатор кодека : 2000
Продолжительность : 49 м.
Вид битрейта : Постоянный
Битрейт : 384 Кбит/сек
Каналы : 6 каналов
Расположение каналов : Front: L C R, Side: L R, LFE
Частота : 48,0 КГц
Частота кадров : 31,250 кадров/сек (1536 spf)
Метод сжатия : С потерями
Размер потока : 136 Мбайт (19%)
Выравнивание : Разделение по промежуткам
Продолжительность промежутка : 40 мс. (1,00 видеокадр)
Время предзагрузки промежутка : 500 мс.
Download / Скачать

Хотите скачать бесплатно? Зарегистрируйтесь на сайте (ссылка на регистрацию). Pirat.ca - самый быстрый торрент трекер в рунете!

Как скачивать  ·   Что такое торрент  ·   Рейтинг и ограничения

Показать сообщения:    
Ответить на тему

Текущее время: Сегодня 23:15

Часовой пояс: GMT + 4



Вы не можете начинать темы
Вы не можете отвечать на сообщения
Вы не можете редактировать свои сообщения
Вы не можете удалять свои сообщения
Вы не можете голосовать в опросах
Вы не можете прикреплять файлы к сообщениям
Вы не можете скачивать файлы

▼ Вниз