ML
     
  Уважаемый Гость!
Вы можете поддержать проект и зарегистрироваться у наших партнеров - онлайн-стратегия MyLands. При регистрации в игре Вы получите код, который сможете активировать после регистрации на pirat.ca и получить 1000 дублонов.

Ваш код:
2fd4e750dd89cae3a36ea360f2b345ccfeb562d3
 
     

Спарта (Николай Кудряшов) [2016 г., боевик, драма, WEB-DLRip-AVC] Original (RUS) [iTunes]

Ответить на тему
 
Автор
Сообщение

Пост 23-Сен-2016 12:41

[Q] 

aleksey99

--Спарта--«Без права на ошибку. Без права на реванш»-- Производство: Россия / Арго Фильм
Год выпуска: 2016 г.
Жанр: боевик, драма
Продолжительность: 01:22:46--Российская премьера: 25 августа 2016, «Каропрокат»--Режиссер: Николай Кудряшов--В ролях: Николай Кудряшов, Денис Никифоров, Ян Цапник, Владимир Епифанцев, Максим Коновалов, Андрей Семенов, Михаил Малютин, Александр Шлеменко, Наталия Власова--Описание: Прямоугольный ринг и две команды бойцов друг напротив друга. Когда силы кончаются, товарища сменяет тот, кто за спиной… Это — Спарта! Новый зрелищный вид единоборств. «Спарта» для бывшего чемпиона по боям без правил Николая — единственная возможность вернуться в большой спорт и решить все проблемы, которые свалились на него три года назад: драка за честь подруги и тюрьма, предательство возлюбленной и отказ тренера в возвращении в команду. Вместе с верными друзьями спортсмен готов бросить вызов всему миру, и ставкой в бои станет его будущая жизнь.-- --Качество видео: WEB-DLRip-AVC
Контейнер: MKV
Видео кодек: H.264
Аудио кодек: AC3
Видео: AVC, 1024x436 (2.35:1), 2145 kbps, 25 fps, 0,192 bpp
Аудио: 48 kHz, AC3 Dolby Digital, 3/2 (L,C,R,l,r) + LFE ch, ~384 kbps
Cубтитры: отсутствуют
Общее
Уникальный идентификатор : 230324986893913013163659567223779467970 (0xAD46FA9A7F97098A8A5611881AA9A2C2)
Полное имя : H:\Torrent2\Sparta.2016.WEB-DLRip-AVC.mkv
Формат : Matroska
Версия формата : Version 4 / Version 2
Размер файла : 1,46 Гбайт
Продолжительность : 1 ч. 22 м.
Общий поток : 2531 Кбит/сек
Дата кодирования : UTC 2016-09-23 08:33:14
Программа кодирования : mkvmerge v9.0.1 ('Obstacles') 64bit
Библиотека кодирования : libebml v1.3.3 + libmatroska v1.4.4
Видео
Идентификатор : 1
Формат : AVC
Формат/Информация : Advanced Video Codec
Профиль формата : [email protected]
Параметр CABAC формата : Да
Параметр ReFrames формата : 12 кадров
Идентификатор кодека : V_MPEG4/ISO/AVC
Продолжительность : 1 ч. 22 м.
Битрейт : 2145 Кбит/сек
Ширина : 1024 пикселя
Высота : 436 пикселей
Соотношение сторон : 2,35:1
Режим частоты кадров : Постоянный
Частота кадров : 25,000 кадров/сек
Цветовое пространство : YUV
Субдискретизация насыщенности : 4:2:0
Битовая глубина : 8 бит
Тип развёртки : Прогрессивная
Бит/(Пиксели*Кадры) : 0.192
Размер потока : 1,24 Гбайт (85%)
Библиотека кодирования : x264 core 148 r2638 7599210
Настройки программы : cabac=1 / ref=12 / deblock=1:-3:-3 / analyse=0x3:0x113 / me=umh / subme=9 / psy=1 / psy_rd=1.00:0.00 / mixed_ref=1 / me_range=32 / chroma_me=1 / trellis=2 / 8x8dct=1 / cqm=0 / deadzone=21,11 / fast_pskip=1 / chroma_qp_offset=-2 / threads=12 / lookahead_threads=3 / sliced_threads=0 / nr=0 / decimate=1 / interlaced=0 / bluray_compat=0 / constrained_intra=0 / bframes=12 / b_pyramid=2 / b_adapt=2 / b_bias=10 / direct=1 / weightb=0 / open_gop=0 / weightp=2 / keyint=250 / keyint_min=25 / scenecut=40 / intra_refresh=0 / rc_lookahead=40 / rc=2pass / mbtree=1 / bitrate=2145 / ratetol=1.0 / qcomp=0.85 / qpmin=0 / qpmax=69 / qpstep=4 / cplxblur=20.0 / qblur=0.5 / ip_ratio=1.40 / aq=1:1.00
Язык : English
Default : Да
Forced : Нет
Аудио
Идентификатор : 2
Формат : AC-3
Формат/Информация : Audio Coding 3
Расширение режима : CM (complete main)
Параметр Endianness формата : Big
Идентификатор кодека : A_AC3
Продолжительность : 1 ч. 22 м.
Вид битрейта : Постоянный
Битрейт : 384 Кбит/сек
Каналы : 6 каналов
Расположение каналов : Front: L C R, Side: L R, LFE
Частота : 48,0 КГц
Частота кадров : 31,250 кадров/сек (1536 spf)
Метод сжатия : С потерями
Размер потока : 227 Мбайт (15%)
Язык : Russian
Default : Да
Forced : Нет
Трейлер
Download / Скачать

Хотите скачать бесплатно? Зарегистрируйтесь на сайте (ссылка на регистрацию). Pirat.ca - самый быстрый торрент трекер в рунете!

Как скачивать  ·   Что такое торрент  ·   Рейтинг и ограничения

Skala973

Корсар

Пост 23-Сен-2016 15:16 (спустя 2 часа 34 минуты)

[Q] 

За раздачу, типа за труды спасибо.
А сам фильм - бредятина полная. Очень напоминает эволюционировавшие фильмы из эпохи начала 90-х гг. Ну там "Кукла", "30-го уничтожить", и подобное отребье.
Как будто такой бред и запускают в переломные для страны моменты.
[Профиль]  [ЛС] 

baltimor30

Морской Волк

Пост 23-Сен-2016 17:25 (спустя 2 часа 9 минут)

[Q] 

Понравился, хоть что-то наши снаяли неплохо
[Профиль]  [ЛС] 

ss80

Флибустьер

36

Пост 23-Сен-2016 21:37 (спустя 4 часа)

[Q] 

Спасибо!!!
[Профиль]  [ЛС] 

Mennny

Пост 23-Сен-2016 23:29 (спустя 1 час 51 минута)

[Q] 

This is Sparta?
[Профиль]  [ЛС] 

rsel

Морской Волк

Пост 23-Сен-2016 23:34 (спустя 5 минут)

[Q] 

Вполне вменяемый спортивный фильм. Не сказать, что шедевр, но посмотреть вполне можно. Еще бы над концовкой как то поработали получше и цены б ему не было
[Профиль]  [ЛС] 

kinstintin

Гроза морей

Пост 23-Сен-2016 23:41 (спустя 6 минут)

[Q] 

благодарствую!
[Профиль]  [ЛС] 

Skat.56

Гроза морей

448

Пост 24-Сен-2016 01:21 (спустя 1 час 40 минут)

[Q] 

Стоит ли качать? Не скажу кому то возможно и понравится, но не мне.
Порадовала новая рекламка) Не назойлива.
[Профиль]  [ЛС] 

Vadimok1984

Штурман

Пост 25-Сен-2016 19:07 (спустя 1 день 17 часов)

[Q] 

спасибо посмотрим фильмец cr
[Профиль]  [ЛС] 

Maks_e

Корсар

69

Пост 26-Сен-2016 08:21 (спустя 13 часов)

[Q] 

Спасибо!!! Супер!
[Профиль]  [ЛС] 
Показать сообщения:    
Ответить на тему

Текущее время: Сегодня 14:11

Часовой пояс: GMT + 4



Вы не можете начинать темы
Вы не можете отвечать на сообщения
Вы не можете редактировать свои сообщения
Вы не можете удалять свои сообщения
Вы не можете голосовать в опросах
Вы не можете прикреплять файлы к сообщениям
Вы не можете скачивать файлы

▼ Вниз