ML
     
  Уважаемый Гость!
Вы можете поддержать проект и зарегистрироваться у наших партнеров - онлайн-стратегия MyLands. При регистрации в игре Вы получите код, который сможете активировать после регистрации на pirat.ca и получить 1000 дублонов.

Ваш код:
062e2babcc491faeb40d496cf9a498ac3df6cdd0
 
     

Тонкая штучка (Александр Полынников) [1999 г., боевик, комедия, криминал, приключения, DVDRip]

Ответить на тему
 
Автор
Сообщение

Пост 26-Сен-2016 04:17

[Q] 

somik

Легенда

-Тонкая штучка-- Производство: Россия, Мосфильм
Режиссер: Александр Полынников
Жанр: боевик, комедия, криминал, приключения
Год выпуска: 1999 г.
Продолжительность: 01:23:13
Российская премьера: 10 ноября 1999
В ролях: Александра Захарова, Игорь Бочкин, Дмитрий Певцов, Семен Фурман, Ольга Беляева, Никита Джигурда, Алексей Серебряков, Андрей Смоляков, Алика Смехова, Илья Олейников-Описание: Юлия Михайловна Круглова, учительница английского языка средней школы провинциального городка, никак не ожидала, что традиционный девичник, по случаю окончания учебного года, омрачиться внезапным появлением в ее квартире самого настоящего трупа.
Вскоре ее навещает брат убитого с коллегами, который попытается выяснить, кто стрелял в Серегу и почему он пришел именно в квартиру к Юле. Кто бы мог подумать, что скромная училка Юля Круглова окажется весьма «тонкой штучкой»…-Сэмпл КиноПоиск
Качество видео: DVDRip
Контейнер: AVI
Видео кодек: XviD
Аудио кодек: Windows Media
Видео: 720x544 (1.32:1), 25 fps, XviD build 47 ~2153 kbps avg, 0.22 bit/pixel
Аудио: 48 kHz, Microsoft MPEG, 2 ch, ~192.00 kbps avg
Cубтитры: отсутствуют
Кинотавр, 2000 год
Номинации (1):
Главный приз «Золотая роза»
«Такая маленькая птичка, а так нагадила!»
1999 — последний год тысячелетия. В стране продолжает царить, пусть и не так абсолютно (раз кино снимается, значит, все не так плохо), атмосфера «лихих 90-х». Возникает вопрос: почему бы не запечатлить ее? И следует ответ — замечательное кино «Тонкая штучка».
Думаю, главная черта фильма — ироничность. Если говорить про жанр, то в первую очередь, это, конечно, комедия. Здесь смеются над всем, чем только можно и нельзя: весело подтрунивают над природой болтливых женщин, над быдловатостью и утонченностью лихих бандитов, над беспомощностью милиции, над вечным русским бичом — пьянством и проч., и проч., и проч. На Западе есть поговорка: «Что смешно, то уже не страшно». У нас наоборот: «Чем страшнее, тем веселее, тем остроумнее шутки». И это правильно.
Фильм смотрится на одном дыхании. Иногда кажется, что не хватает глубины раскрытия сюжетных линий. Начинаешь представлять, как оно было бы, если бы… И с удовлетворением замечаешь: режиссер и команда сделали все, что нужно было. Больше не надо!
Юлия (Александра Захарова), учительница английского языка. Девушка компанейская, активная, сообразительная и невероятно смелая. Ее, конечно, не радует приход бандитов, но она быстро приспосабливается. По ходу фильма выясняется, что «училка убогая» не так проста, как кажется. Ее умения, не раз выручавшие воров в законе, и восхищают бандитов и настораживают. Захарова замечательная актриса, превосходно справилась с ролью.
Паша (Игорь Бочкин). Столичный бандит, разыскивает своего брата и на все готов ради его спасения, а если не удастся… что ж, тогда он будет мстить. В фильме показаны разные преступники. Вот Паша, например, интеллигентный. Представительный мужчина среднего возраста с этаким столичным лоском. Приятен в беседе, не совершает необдуманных поступков, по-своему добрый.
Есть и другие виды бандитов. Боксер (Андрей Смоляков) весь «на пафосе». Пальцы веером, гонор зашкаливает, но стоит только фигуре покрупнее оказать на него давление — мигом в кусты! Труслив или адекватно оценивает свои реальные шансы? В общем, сейчас, кроме улыбки, персонаж Смолякова (сыграно блестяще, кстати!) не вызывает других эмоций.
Конечно, стоит упомянуть команду Паши. Недалекий Витек с пошлыми шутками и силач Гиви, легко впадающий в состояние крушащего все вокруг гнева. Забавно спустя почти 15 лет смотреть на игру Алексея Серебрякова и Никиты Джигурды. Последний, к слову, тогда выглядел и играл лучше, чем сейчас.
Мотя (Илья Олейников), главный злодей. По сути держит город. Сентиментален, жесток, невозмутим, нуждается в эстетике и вообще «человек очень тонкий». «Такая маленькая птичка, а так нагадила».
Валера (Дмитрий Певцов). Обезьяна, которая не мешая ждет, пока тигры самоуничтожат себя. Вел себя мудро и мужественно. Певцов прекрасен, ни убавить, ни прибавить!
Отдельное «Браво!» хочется сказать за музыку. Главный саундтрек идеально отражает суть происходящего.
На сегодня большинство актеров, сыгравших в «Тонкой штучке», народные артисты России. Высокое звание за просто так не дают. Посмотрите этот фильм, вы обязательно проведете время с удовольствием.
10 из 10
Общее
Полное имя : F:\Тонкая штучка\Tonkaja shtutchka.1999.DVDRip.[pirat.ca].avi
Формат : AVI
Формат/Информация : Audio Video Interleave
Размер файла : 1,37 Гбайт
Продолжительность : 1 ч. 23 м.
Общий поток : 2352 Кбит/сек
Программа кодирования : VirtualDubMod 1.5.4.1 (build 2178/release)
Библиотека кодирования : VirtualDubMod build 2178/release
Видео
Идентификатор : 0
Формат : MPEG-4 Visual
Профиль формата : Advanced [email protected]
Параметр BVOP формата : 1
Параметр QPel формата : Нет
Параметр GMC формата : Без точки перехода
Параметр матрицы формата : Выборочная
Идентификатор кодека : XVID
Идентификатор кодека/Подсказка : XviD
Продолжительность : 1 ч. 23 м.
Битрейт : 2153 Кбит/сек
Ширина : 720 пикселей
Высота : 544 пикселя
Соотношение сторон : 4:3
Частота кадров : 25,000 кадров/сек
Цветовое пространство : YUV
Субдискретизация насыщенности : 4:2:0
Битовая глубина : 8 бит
Тип развёртки : Прогрессивная
Метод сжатия : С потерями
Бит/(Пиксели*Кадры) : 0.220
Размер потока : 1,25 Гбайт (92%)
Библиотека кодирования : XviD 1.2.0.dev47 (UTC 2006-11-01)
Аудио
Идентификатор : 1
Формат : MPEG Audio
Версия формата : Version 1
Профиль формата : Layer 2
Идентификатор кодека : 50
Продолжительность : 1 ч. 23 м.
Вид битрейта : Постоянный
Битрейт : 192 Кбит/сек
Каналы : 2 канала
Частота : 48,0 КГц
Метод сжатия : С потерями
Размер потока : 114 Мбайт (8%)
Выравнивание : Соединение по промежуткам
Продолжительность промежутка : 80 мс. (2,00 видеокадра)
Время предзагрузки промежутка : 504 мс.
Download / Скачать

Хотите скачать бесплатно? Зарегистрируйтесь на сайте (ссылка на регистрацию). Pirat.ca - самый быстрый торрент трекер в рунете!

Как скачивать  ·   Что такое торрент  ·   Рейтинг и ограничения

somik ®

Легенда

26545

Пост 26-Сен-2016 04:19 (спустя 2 минуты)

[Q] 

Ребята! Качество не фонтан, плюс плавающий недокроп. Залил только для любителей. aa

_________________
Всё когда-нибудь уже было... В интернете!
[Профиль]  [ЛС] 
Показать сообщения:    
Ответить на тему

Текущее время: Сегодня 17:39

Часовой пояс: GMT + 4



Вы не можете начинать темы
Вы не можете отвечать на сообщения
Вы не можете редактировать свои сообщения
Вы не можете удалять свои сообщения
Вы не можете голосовать в опросах
Вы не можете прикреплять файлы к сообщениям
Вы не можете скачивать файлы

▼ Вниз