ML
     
  Уважаемый Гость!
Вы можете поддержать проект и зарегистрироваться у наших партнеров - онлайн-стратегия MyLands. При регистрации в игре Вы получите код, который сможете активировать после регистрации на pirat.ca и получить 1000 дублонов.

Ваш код:
bc31d8aef74c92e19ad67e34a8fa63c3b9b812fb
 
     

Код Каина (Уильям Де Виталь, Денис Соболев) [2015 г., боевик, триллер, драма, HDRip] Original (RUS)

Ответить на тему
 
Автор
Сообщение

Пост 27-Сен-2016 08:46

[Q] 

aleksey99

--Код Каина--«Каина убить нельзя»-- Производство: Беларусь, Нонстоп МЕДИА, Solomon Film Production
Год выпуска: 2015 г.
Жанр: боевик, триллер, драма
Продолжительность: 01:40:42--Мировая премьера: 4 мая 2015
Российская премьера: 12 мая 2016, «Nonstop MEDIA»--Режиссер: Уильям Де Виталь, Денис Соболев--В ролях: Салли Кёркленд, Наташа Алам, Руслан Чернецкий, Евгений Шмарловский, Олеся Грибок, Эрик Робертс, Алексей Серебряков, Владимир Гостюхин, Игорь Савочкин, Коби Азарли--Описание: В основе сюжета лежит Библейская история о Каине и Авеле, которая вновь оживает в современном мире. Успешная американская журналистка Сара Огден — агент тайного общества, которое исследует «Код Каина» — ген, толкающий человека на путь ненависти, предательства, убийства, несущий угрозу всему мирозданию. Для выполнения очередной миссии Сара отправляется в Восточную Европу на поиски носителя рокового гена. Удастся ли разрешить конфликт, когда ошибки уже допущены, обида нанесена и гнев, словно бушующее пламя, охватывает души и сердца людей? Смогут ли силы любви и примирения предотвратить трагедию или жестокого финала не избежать?-- --Качество видео: HDRip
Контейнер: AVI
Видео кодек: XviD
Аудио кодек: AC3
Видео: 720x304 (2.37:1), 23.976 fps, XviD build 73 ~1606 kbps avg, 0.31 bit/pixel
Аудио: 48 kHz, AC3 Dolby Digital, 3/2 (L,C,R,l,r) + LFE ch, ~448 kbps
Cубтитры: отсутствуют
Общее
Полное имя : H:\Torrent2\KOD.KAINA.2015.HDRip.avi
Формат : AVI
Формат/Информация : Audio Video Interleave
Размер файла : 1,45 Гбайт
Продолжительность : 1 ч. 40 м.
Общий поток : 2064 Кбит/сек
Программа кодирования : VirtualDubMod 1.5.10.3 | www.virtualdub-fr.org || (build 2550/release)
Библиотека кодирования : VirtualDubMod build 2550/release
Видео
Идентификатор : 0
Формат : MPEG-4 Visual
Профиль формата : Advanced [email protected]
Параметр BVOP формата : 1
Параметр QPel формата : Нет
Параметр GMC формата : Без точки перехода
Параметр матрицы формата : Выборочная
Идентификатор кодека : XVID
Идентификатор кодека/Подсказка : XviD
Продолжительность : 1 ч. 40 м.
Битрейт : 1607 Кбит/сек
Ширина : 720 пикселей
Высота : 304 пикселя
Соотношение сторон : 2,35:1
Частота кадров : 23,976 (23976/1000) кадра/сек
Цветовое пространство : YUV
Субдискретизация насыщенности : 4:2:0
Битовая глубина : 8 бит
Тип развёртки : Прогрессивная
Метод сжатия : С потерями
Бит/(Пиксели*Кадры) : 0.306
Размер потока : 1,13 Гбайт (78%)
Библиотека кодирования : XviD 73
Аудио
Идентификатор : 1
Формат : AC-3
Формат/Информация : Audio Coding 3
Расширение режима : CM (complete main)
Параметр Endianness формата : Big
Идентификатор кодека : 2000
Продолжительность : 1 ч. 40 м.
Вид битрейта : Постоянный
Битрейт : 448 Кбит/сек
Каналы : 6 каналов
Расположение каналов : Front: L C R, Side: L R, LFE
Частота : 48,0 КГц
Частота кадров : 31,250 кадров/сек (1536 spf)
Метод сжатия : С потерями
Размер потока : 323 Мбайт (22%)
Выравнивание : Разделение по промежуткам
Продолжительность промежутка : 42 мс. (1,00 видеокадр)
Время предзагрузки промежутка : 500 мс.
Трейлер
Download / Скачать

Хотите скачать бесплатно? Зарегистрируйтесь на сайте (ссылка на регистрацию). Pirat.ca - самый быстрый торрент трекер в рунете!

Как скачивать  ·   Что такое торрент  ·   Рейтинг и ограничения

Skat.56

Гроза морей

448

Пост 27-Сен-2016 13:54 (спустя 5 часов)

[Q] 

Всем качать, тут снимался сам молодой...Ну вы поняли)

Фильм реально хорош.
Модератор не слажал...
[Профиль]  [ЛС] 

realyu

Корсар

Пост 28-Сен-2016 00:09 (спустя 10 часов)

[Q] 

Беларусы умеют снимать только про ВОВ, это их конёк. Что видно даже по этой киношке - весь фильм УГ и только единственная 4х минутная вставка-флешбэк снята великолепно. Ибо как раз про те времена.
По фильму:
сюжет - бредятина
актёры - любители
саунд - отсутствует
картинка - привет из 90х
спецэффекты - уснуть можно от такого "экшена"
[Профиль]  [ЛС] 

Андря

8419

Пост 28-Сен-2016 18:04 (спустя 17 часов)

[Q] 

realyu, в беларуси только один Актёр, остальные лишь подобие.

_________________
Като Тешекика
[Профиль]  [ЛС] 

RozM

Морской Волк

Пост 29-Сен-2016 13:47 (спустя 19 часов)

[Q] 

Смотреть не смог. Снято и смонтировано просто ужасно. Игра актеров никакая.
Выключил минут через 15.
[Профиль]  [ЛС] 

surzis

Корсар

Пост 19-Окт-2016 17:05 (спустя 20 дней)

[Q] 

767644Смотреть не смог. Снято и смонтировано просто ужасно. Игра актеров никакая.
Выключил минут через 15.
Спасибо) Не буду качать)

_________________
http://surzis.ru/ - заходи ко мне в блог! Советую только хорошие фильмы и игры!
[Профиль]  [ЛС] 

KoNiaL_KCC

Гроза морей

Пост 27-Окт-2016 20:12 (спустя 8 дней)

[Q] 

фильм не понравился. а цензура комментариев тем более. сообщение 27-Сен-2016 12:54 от Skat.56, выглядело несколько иначе, а потом что то случилось и .... Ой как стыдно-то... Отказать
[Профиль]  [ЛС] 

Skat.56

Гроза морей

448

Пост 27-Окт-2016 20:14 (спустя 2 минуты)

[Q] 

770923фильм не понравился. а цензура комментариев тем более. сообщение 27-Сен-2016 12:54 от Skat.56, выглядело несколько иначе, а потом что то случилось и .... Ой как стыдно-то... Отказать
Я сам изменил. Цензура(((
Действия модератора обсуждать нельзя.
Не осуждаю.
[Профиль]  [ЛС] 

ketzer

Морской Волк

Пост 27-Окт-2016 20:52 (спустя 37 минут)

[Q] 

Фильм - шляпа. Но Эрик Робертс на постере так проникновенно призывает молчать об этом, что мне даже как-то неловко открывать эту тайну.
[Профиль]  [ЛС] 

Пост 29-Окт-2016 18:40 (спустя 1 день 21 час)

Топик был перенесен из форума Новинки (HD|DVD|BD| TV|SAT|PDTV| - Rips) в форум Российские фильмы
aleksey99
 
Показать сообщения:    
Ответить на тему

Текущее время: Сегодня 12:00

Часовой пояс: GMT + 4



Вы не можете начинать темы
Вы не можете отвечать на сообщения
Вы не можете редактировать свои сообщения
Вы не можете удалять свои сообщения
Вы не можете голосовать в опросах
Вы не можете прикреплять файлы к сообщениям
Вы не можете скачивать файлы

▼ Вниз