ML
     
  Уважаемый Гость!
Вы можете поддержать проект и зарегистрироваться у наших партнеров - онлайн-стратегия MyLands. При регистрации в игре Вы получите код, который сможете активировать после регистрации на pirat.ca и получить 1000 дублонов.

Ваш код:
21acd5966619d49ad0b90c3305467b4646cc11a8
 
     

Ночные стражи (Эмилис Веливис) [2016 г., фэнтези, боевик, HDTVRip] Original (RUS)

Ответить на тему
 
Автор
Сообщение

Пост 29-Сен-2016 08:24

[Q] 

aleksey99

--Ночные стражи--«Отдел борьбы с нечистью ждет новую кровь»-- Производство: Россия, Марс Медиа Энтертейнмент
Год выпуска: 2016 г.
Жанр: фэнтези, боевик
Продолжительность: 01:35:27--Мировая премьера: 2 сентября 2016
Российская премьера: 25 августа 2016, «Вольга»--Режиссер: Эмилис Веливис--В ролях: Иван Янковский, Любовь Аксёнова, Леонид Ярмольник, Михаил Евланов, Сабина Ахмедова, Константин Адаев, Юрий Ваксман, Алексей Дмитриев, Денис Бузин, Евгений Косырев--Описание: Оборотни, упыри и ведьмы — существуют. Если вы до сих пор не сталкивались с ними, то это заслуга отдела по надзору за представителями альтернативной жизни.
Обычный курьер случайно становится свидетелем зачистки нечисти в одном из столичных отелей, после чего получает новую работу.
Сотрудники отдела «Н» не бессмертны, но даже вампирам они не по зубам.-- --Качество видео: HDTVRip
Контейнер: AVI
Видео кодек: XviD
Аудио кодек: AC3
Видео: 720x304 (2.37:1), 25 fps, XviD build 50 ~1655 kbps avg, 0.30 bit/pixel
Аудио: 48 kHz, AC3 Dolby Digital, 2/0 (L,R) ch, ~384 kbps
Cубтитры: отсутствуют
Общее
Полное имя : D:\Torrent 2\Stragi.2016.HDTVRip.14OOMB.avi
Формат : AVI
Формат/Информация : Audio Video Interleave
Размер файла : 1,37 Гбайт
Продолжительность : 1 ч. 35 м.
Общий поток : 2050 Кбит/сек
Программа кодирования : VirtualDubMod 1.5.10.2 (build 2540/release)
Библиотека кодирования : VirtualDubMod build 2540/release
Видео
Идентификатор : 0
Формат : MPEG-4 Visual
Профиль формата : Advanced [email protected]
Параметр BVOP формата : 2
Параметр QPel формата : Нет
Параметр GMC формата : Без точки перехода
Параметр матрицы формата : Default (MPEG)
Идентификатор кодека : XVID
Идентификатор кодека/Подсказка : XviD
Продолжительность : 1 ч. 35 м.
Битрейт : 1656 Кбит/сек
Ширина : 720 пикселей
Высота : 304 пикселя
Соотношение сторон : 2,35:1
Частота кадров : 25,000 кадров/сек
Цветовое пространство : YUV
Субдискретизация насыщенности : 4:2:0
Битовая глубина : 8 бит
Тип развёртки : Прогрессивная
Метод сжатия : С потерями
Бит/(Пиксели*Кадры) : 0.303
Размер потока : 1,10 Гбайт (81%)
Библиотека кодирования : XviD 1.2.1 (UTC 2008-12-04)
Аудио
Идентификатор : 1
Формат : AC-3
Формат/Информация : Audio Coding 3
Расширение режима : CM (complete main)
Параметр Endianness формата : Big
Идентификатор кодека : 2000
Продолжительность : 1 ч. 35 м.
Вид битрейта : Постоянный
Битрейт : 384 Кбит/сек
Каналы : 2 канала
Расположение каналов : Front: L R
Частота : 48,0 КГц
Метод сжатия : С потерями
Размер потока : 262 Мбайт (19%)
Выравнивание : Разделение по промежуткам
Продолжительность промежутка : 40 мс. (1,00 видеокадр)
Время предзагрузки промежутка : 500 мс.
Трейлер
Download / Скачать

Хотите скачать бесплатно? Зарегистрируйтесь на сайте (ссылка на регистрацию). Pirat.ca - самый быстрый торрент трекер в рунете!

Как скачивать  ·   Что такое торрент  ·   Рейтинг и ограничения

phoentice

Лоцман

Пост 29-Сен-2016 11:09 (спустя 2 часа 44 минуты)

[Q] 

Спасибо раздающему.
Фильм - на уровне лучших достижений мирового кинематографа.
Ужу первые кадры говорят о высочайшем классе.
В советские времена ералаши лучше снимали.
Главный герой играет в лучших традициях ТЮЗа.
Короче, посмотрите. Так, поржать.
[Профиль]  [ЛС] 

roger3

Штурман

Пост 29-Сен-2016 18:29 (спустя 7 часов)

[Q] 

Бред это легко будет сказано
[Профиль]  [ЛС] 

butyas

Корсар

Пост 29-Сен-2016 19:20 (спустя 50 минут)

[Q] 

подождем побольше коментов
[Профиль]  [ЛС] 

Массарадж

Морской Волк

Пост 29-Сен-2016 19:29 (спустя 8 минут)

[Q] 

О! Ночной дозор?!

_________________
[Профиль]  [ЛС] 

pvm

Корсар

Пост 29-Сен-2016 20:20 (спустя 51 минута)

[Q] 

Чуть не скачал, спасибо за комментарии.
[Профиль]  [ЛС] 

errorist

Лоцман

Пост 29-Сен-2016 21:54 (спустя 1 час 33 минуты)

[Q] 

по афише все сразу понятно ))
[Профиль]  [ЛС] 

nomad2000

Шкипер

Пост 30-Сен-2016 00:09 (спустя 2 часа 15 минут)

[Q] 

ну что ж, заценим
[Профиль]  [ЛС] 

OLEG_PS2009

Флибустьер

Пост 30-Сен-2016 11:16 (спустя 11 часов)

[Q] 

Ночной дозор - Lite, даже SuperLite!!! В общем любителям фантастики посмотреть не на что!!! Посредственный сценарий, да и игра актеров не на высоте, скажем на уровне детского спектакля ))))) Раздающему респект! На любителя
[Профиль]  [ЛС] 

DocSoft

Гроза морей

71

Пост 30-Сен-2016 21:09 (спустя 9 часов)

[Q] 

Я обломался с фильмом Диггеры, думал на Русские фильмы в кинотеатр не буду ходить. Но "Дуэлянт" заставил посмотреть на Российский киноматограф по другому! Надеюсь этот фильм не испортит впечатление и веру в Русский кинематограф. Спасибо за фильм !!!

_________________
Всего одна Любовь !
[Профиль]  [ЛС] 

ТАЛИ

Корсар

Пост 01-Окт-2016 20:25 (спустя 23 часа)

[Q] 

Какой-то отвратительный шлак, имевший все шансы стать неплохим блокбастером! Что там не так - не могу понять.Наверно это режиссерский и чей-то там еще косяк. Потому что ну не Ярмольника же винить за плохую игру, да и внучек Олега Янковского тоже не безнадежен, я его в Тряпичном союзе заценила (кстати, парниша в деда фактурой пошел, а не в не очень-то удавшегося папу...). Но фильм смотрится прям вообще плохо - какая-то неудачная пародия на Бекмамбетова. Жутко корявый и не к месту рапид, а со съемкой быстрых боевых сцен - наоборот проблема. А уж эти выпученные глаза, нахмуренные бровки, дибильное рычание и оскал "ррр, я страшный серый волк" - это, как уже выше писали, вообще уровень ТЮЗа или даже детсадовского утренника. Да и сюжет - огрызок какй-то и недоразумение... Короче, плохо все, прям вообще никак.
[Профиль]  [ЛС] 

kostyawerty

Штурман

Пост 02-Окт-2016 22:38 (спустя 1 день 2 часа)

[Q] 

мне просто интересно,вот когда фильм смонтирован его пересматривает режиссер и думает: а) оо,как же крутой вышло,зритель будет в восторге; б) ну,деваться некуда,бабло потрачено,выпускаем в прокат
[Профиль]  [ЛС] 

Пост 29-Окт-2016 18:38 (спустя 26 дней)

Топик был перенесен из форума Новинки (HD|DVD|BD| TV|SAT|PDTV| - Rips) в форум Российские фильмы
aleksey99
 

pavlin2000

Штурман

Пост 14-Ноя-2016 19:01 (спустя 1 месяц 11 дней)

[Q] 

ерунда на уровне сифы
Добавлено спустя 31 секунда:
ерунда на уровне "сифы"
[Профиль]  [ЛС] 
Показать сообщения:    
Ответить на тему

Текущее время: Сегодня 23:20

Часовой пояс: GMT + 4



Вы не можете начинать темы
Вы не можете отвечать на сообщения
Вы не можете редактировать свои сообщения
Вы не можете удалять свои сообщения
Вы не можете голосовать в опросах
Вы не можете прикреплять файлы к сообщениям
Вы не можете скачивать файлы

▼ Вниз