ML
     
  Уважаемый Гость!
Вы можете поддержать проект и зарегистрироваться у наших партнеров - онлайн-стратегия MyLands. При регистрации в игре Вы получите код, который сможете активировать после регистрации на pirat.ca и получить 1000 дублонов.

Ваш код:
156f85568ae63e45e07ac461c96a83ba1a876b0a
 
     

Тэли и Толи (Александр Амиров) [2015 г., комедия, мелодрама, WEB-DLRip] Original (RUS)[iTunes]

Ответить на тему
 
Автор
Сообщение

Пост 02-Окт-2016 18:17

[Q] 

aleksey99

--Тэли и Толи--«Про дружбу без границ»-- Производство: Россия, Канада, Грузия, Греция
Год выпуска: 2015 г.
Жанр: комедия, мелодрама
Продолжительность: 01:14:00--Российская премьера: 1 сентября 2016, «Люксор»--Режиссер: Александр Амиров--В ролях: Кахи Кавсадзе, Дагун Омаев, Анатолий Дзиваев, Риналь Мухаметов, Нуца Хабулава, Сослан Фидаров, Ник Шония, Сергей Погосян, Иван Дубровский, Казбек Кибизов--Описание: Эта житейская история, происходящая в горах Северного Кавказа на границе двух деревень — осетинского Толи и грузинского Тэли, рассказывает нам о простых и наивных людях, которые, вопреки тому, что их сегодня пытаются разделить официальной границей, хотят жить в мире и согласии, не взирая на национальности и реалии времени — так, как сотни лет жили их деды и прадеды, привыкшие все конфликты решать мирным путем и по обычаям Кавказа — за большим столом с вином и песнями…-- --Качество видео: WEB-DLRip
Контейнер: AVI
Видео кодек: XviD
Аудио кодек: AC3
Видео: 720x304 (2.37:1), 25 fps, XviD build 50 ~2378 kbps avg, 0.43 bit/pixel
Аудио: 48 kHz, AC3 Dolby Digital, 2/0 (L,R) ch, ~384 kbps
Cубтитры: отсутствуют
Общее
Полное имя : H:\Torrent2\Teli.i.Toli.2015.O.WEB-DLRip.avi
Формат : AVI
Формат/Информация : Audio Video Interleave
Размер файла : 1,43 Гбайт
Продолжительность : 1 ч. 14 м.
Общий поток : 2772 Кбит/сек
Программа кодирования : VirtualDubMod 1.5.10.3 | www.virtualdub-fr.org || (build 2550/release)
Библиотека кодирования : VirtualDubMod build 2550/release
Видео
Идентификатор : 0
Формат : MPEG-4 Visual
Профиль формата : Advanced [email protected]
Параметр BVOP формата : 2
Параметр QPel формата : Нет
Параметр GMC формата : Без точки перехода
Параметр матрицы формата : Выборочная
Идентификатор кодека : XVID
Идентификатор кодека/Подсказка : XviD
Продолжительность : 1 ч. 14 м.
Битрейт : 2378 Кбит/сек
Ширина : 720 пикселей
Высота : 304 пикселя
Соотношение сторон : 2,35:1
Частота кадров : 25,000 кадров/сек
Цветовое пространство : YUV
Субдискретизация насыщенности : 4:2:0
Битовая глубина : 8 бит
Тип развёртки : Прогрессивная
Метод сжатия : С потерями
Бит/(Пиксели*Кадры) : 0.435
Размер потока : 1,23 Гбайт (86%)
Библиотека кодирования : XviD 1.2.1 (UTC 2008-12-04)
Аудио
Идентификатор : 1
Формат : AC-3
Формат/Информация : Audio Coding 3
Расширение режима : CM (complete main)
Параметр Endianness формата : Big
Идентификатор кодека : 2000
Продолжительность : 1 ч. 14 м.
Вид битрейта : Постоянный
Битрейт : 384 Кбит/сек
Каналы : 2 канала
Расположение каналов : Front: L R
Частота : 48,0 КГц
Частота кадров : 31,250 кадров/сек (1536 spf)
Метод сжатия : С потерями
Размер потока : 203 Мбайт (14%)
Выравнивание : Разделение по промежуткам
Продолжительность промежутка : 40 мс. (1,00 видеокадр)
Время предзагрузки промежутка : 500 мс.
Трейлер
Download / Скачать

Хотите скачать бесплатно? Зарегистрируйтесь на сайте (ссылка на регистрацию). Pirat.ca - самый быстрый торрент трекер в рунете!

Как скачивать  ·   Что такое торрент  ·   Рейтинг и ограничения

Skala973

Корсар

Пост 03-Окт-2016 14:05 (спустя 19 часов)

[Q] 

Качество на уровне, за релиз спасибо.
Но... Фильм то по сути чистая рекламная картинка. Дескать посмотрите на мирных и дружественных кавказцев.
А на самом деле, вирус алчности заразил и Кавказ. Старик там тебя предаст и обманет даже за понюшку табаку. Ни чести, ни совести.
А здесь картинка красивая.
ну по аналогии с американскими фильмами. Типа витрину показывают.
Так... фантастика.
[Профиль]  [ЛС] 

Пост 03-Ноя-2016 16:52 (спустя 1 месяц)

Топик был перенесен из форума Новинки (HD|DVD|BD| TV|SAT|PDTV| - Rips) в форум Российские фильмы
aleksey99
 
Показать сообщения:    
Ответить на тему

Текущее время: Сегодня 21:59

Часовой пояс: GMT + 4



Вы не можете начинать темы
Вы не можете отвечать на сообщения
Вы не можете редактировать свои сообщения
Вы не можете удалять свои сообщения
Вы не можете голосовать в опросах
Вы не можете прикреплять файлы к сообщениям
Вы не можете скачивать файлы

▼ Вниз