ML
     
  Уважаемый Гость!
Вы можете поддержать проект и зарегистрироваться у наших партнеров - онлайн-стратегия MyLands. При регистрации в игре Вы получите код, который сможете активировать после регистрации на pirat.ca и получить 1000 дублонов.

Ваш код:
93dbf9fbdfa06c41d3b5a2c3921149ba36168c41
 
     

Все о мужчинах (Михаил Жерневский, Леонид Марголин) [2016 г., комедия, BDRip] Original (RUS)[Лицензия]

Ответить на тему
 
Автор
Сообщение

Пост 03-Окт-2016 08:48

[Q] 

aleksey99

--Все о мужчинах-- Производство: Россия, Enjoy Movies, Fresh Film
Год выпуска: 2016 г.
Жанр: комедия
Продолжительность: 01:18:47--Российская премьера: 1 сентября 2016, «Каропрокат»--Режиссер: Михаил Жерневский, Леонид Марголин--В ролях: Дмитрий Нагиев, Анна Хилькевич, Игорь Верник, Сергей Белоголовцев, Грант Тохатян, Владимир Епифанцев, Екатерина Скулкина, Елена Борщева, Виктор Степанян, Ян Цапник--Описание: Это история о том, какими разными могут быть мужчины. О том, что мужчины — это, в первую очередь, сложные решения и настоящие поступки. О том, в чем мужчины могут быть сильны, а в чем комичны. О том, за что их можно и нужно любить…-- --Качество видео: BDRip
Контейнер: AVI
Видео кодек: XviD
Аудио кодек: AC3
Видео: 720x304 (2.37:1), 24 fps, XviD build 50 ~2025 kbps avg, 0.39 bit/pixel
Аудио: 48 kHz, AC3 Dolby Digital, 3/2 (L,C,R,l,r) + LFE ch, ~448 kbps
Cубтитры: отсутствуют
Общее
Полное имя : H:\Torrent2\Vsiyo.O.MuzCHinaX.2O16.O.BDRip.14OOMB.avi
Формат : AVI
Формат/Информация : Audio Video Interleave
Размер файла : 1,37 Гбайт
Продолжительность : 1 ч. 18 м.
Общий поток : 2483 Кбит/сек
Программа кодирования : VirtualDubMod 1.5.10.2 (build 2540/release)
Библиотека кодирования : VirtualDubMod build 2540/release
Видео
Идентификатор : 0
Формат : MPEG-4 Visual
Профиль формата : Advanced [email protected]
Параметр BVOP формата : 2
Параметр QPel формата : Нет
Параметр GMC формата : Без точки перехода
Параметр матрицы формата : Default (MPEG)
Идентификатор кодека : XVID
Идентификатор кодека/Подсказка : XviD
Продолжительность : 1 ч. 18 м.
Битрейт : 2026 Кбит/сек
Ширина : 720 пикселей
Высота : 304 пикселя
Соотношение сторон : 2,35:1
Частота кадров : 24,000 кадра/сек
Цветовое пространство : YUV
Субдискретизация насыщенности : 4:2:0
Битовая глубина : 8 бит
Тип развёртки : Прогрессивная
Метод сжатия : С потерями
Бит/(Пиксели*Кадры) : 0.386
Размер потока : 1,12 Гбайт (82%)
Библиотека кодирования : XviD 1.2.1 (UTC 2008-12-04)
Аудио
Идентификатор : 1
Формат : AC-3
Формат/Информация : Audio Coding 3
Расширение режима : CM (complete main)
Параметр Endianness формата : Big
Идентификатор кодека : 2000
Продолжительность : 1 ч. 18 м.
Вид битрейта : Постоянный
Битрейт : 448 Кбит/сек
Каналы : 6 каналов
Расположение каналов : Front: L C R, Side: L R, LFE
Частота : 48,0 КГц
Частота кадров : 31,250 кадров/сек (1536 spf)
Метод сжатия : С потерями
Размер потока : 253 Мбайт (18%)
Выравнивание : Разделение по промежуткам
Продолжительность промежутка : 42 мс. (1,00 видеокадр)
Время предзагрузки промежутка : 500 мс.
Трейлер
Download / Скачать

Хотите скачать бесплатно? Зарегистрируйтесь на сайте (ссылка на регистрацию). Pirat.ca - самый быстрый торрент трекер в рунете!

Как скачивать  ·   Что такое торрент  ·   Рейтинг и ограничения

aleksey99 ®

282377

Пост 14-Окт-2016 08:58 (спустя 11 дней)

[Q] 

Файл заменён на BDRip [Лицензия]

_________________

[Профиль]  [ЛС] 

Hausser

Гроза морей

Пост 16-Окт-2016 16:39 (спустя 2 дня 7 часов)

[Q] 

На разок потянет. Раздающему респект!
[Профиль]  [ЛС] 

grosboy

Флибустьер

Пост 16-Окт-2016 21:59 (спустя 5 часов)

[Q] 

Слабоват. Даже наличие признаных звезд росийского синематографа не спасает. Довольно скушный. Еле досмотрел до конца. Юмора нет или почти нет. На любителя одним словом...

_________________
Щастье есть - его не может не быть...
[Профиль]  [ЛС] 

Aleks44

Гроза морей

Пост 23-Окт-2016 16:24 (спустя 6 дней)

[Q] 

Фильм нудный, скучный, посмотрел 20 мин и выключил
[Профиль]  [ЛС] 

ketzer

Морской Волк

Пост 23-Окт-2016 20:15 (спустя 3 часа)

[Q] 

Отстойный фильм, чего уж тут.
[Профиль]  [ЛС] 

mb1969

Корсар

Пост 05-Ноя-2016 15:41 (спустя 12 дней)

[Q] 

Нельзя сказать что шедевр. Да еще Нагиев в роли эдакого доброго, богатого и всезнающего дяди...))) Фу!
[Профиль]  [ЛС] 

Пост 17-Ноя-2016 08:54 (спустя 11 дней)

Топик был перенесен из форума Новинки (HD|DVD|BD| TV|SAT|PDTV| - Rips) в форум Российские фильмы
aleksey99
 
Показать сообщения:    
Ответить на тему

Текущее время: Сегодня 20:21

Часовой пояс: GMT + 4



Вы не можете начинать темы
Вы не можете отвечать на сообщения
Вы не можете редактировать свои сообщения
Вы не можете удалять свои сообщения
Вы не можете голосовать в опросах
Вы не можете прикреплять файлы к сообщениям
Вы не можете скачивать файлы

▼ Вниз