ML
     
  Уважаемый Гость!
Вы можете поддержать проект и зарегистрироваться у наших партнеров - онлайн-стратегия MyLands. При регистрации в игре Вы получите код, который сможете активировать после регистрации на pirat.ca и получить 1000 дублонов.

Ваш код:
062e2babcc491faeb40d496cf9a498ac3df6cdd0
 
     

72 метра (Владимир Хотиненко) [2004 г., боевик, триллер, драма, DVDRip]

Ответить на тему
 
Автор
Сообщение

Пост 08-Окт-2016 16:25

[Q] 

somik

Легенда

-72 метра-- Производство: Россия, Первый канал, Студия Тритэ
Режиссер: Владимир Хотиненко
Жанр: боевик, триллер, драма
Год выпуска: 2004 г.
Продолжительность: 01:57:08
Российская премьера: 12 февраля 2004, «Гемини Киномир»
Дата выхода DVD: 1 апреля 2004, «Первая Видеокомпания»
В ролях: Сергей Маковецкий, Марат Башаров, Андрей Краско, Дмитрий Ульянов, Чулпан Хаматова, Станислав Никольский, Сергей Гармаш, Владислав Галкин, Игорь Ливанов, Артем Михалков-Описание: Рассказ «72 метра», повествующий о гибели подводной лодки, был написан Александром Покровским задолго до того, как произошла трагедия «Курска». Это не пророчество и не совпадение, а, к сожалению, логика вещей.
Самые суперсовременные самолеты падали и будут время от времени падать. Самые надежные корабли и подводные лодки тонули и, увы, еще будут тонуть. Но речь не об этом…
Бывает так, что в критической ситуации люди, считавшиеся слабыми, становятся сильными, а те, кто казался твёрдыми, как скала, смертельно слабеют. Но все вместе они — герои. Эта история не о том, что надежда умирает последней, а о том, что она не умирает никогда…-КиноПоиск
Качество видео: DVDRip
Контейнер: AVI
Видео кодек: XviD
Аудио кодек: AC3
Видео: 720x384 (1.88:1), 25 fps, XviD Final 1.0.3 (build 37) ~2057 kbps avg, 0.30 bit/pixel
Аудио: 48 kHz, AC3 Dolby Digital, 3/2 (L,C,R,l,r) + LFE ch, ~448 kbps
Cубтитры: отсутствуют
Существует, как минимум, две версии фильма: первая, вышедшая на DVD и вторая, которая обычно транслируется Первым каналом. Разница заключается в том, что из первой версии вырезаны многие флешбеки.
В фильме присутствует продакт-плейсмент компании Nemiroff.
Фильм снят по заказу «Первого канала», одновременно с прокатной версией делалась и телевизионная. Рабочее название картины — «Прощание Славянки».
Кроме истории с «конфискованными» фашистскими часами в фильме присутствуют и другие мистические элементы: например, в торпедном отсеке осталось 13 человек.
Съемки проходили на побережье Баренцева моря. Финал — взрыв лодки на глубине 72 метра — снимали на «Мосфильме».
Золотой орел, 2005 год
Победитель (2):
Лучший фильм
Лучшая музыка
Номинации (2):
Лучшая мужская роль второго плана (Сергей Гармаш)
Лучшая работа оператора
Ника, 2005 год
Номинации (1):
Лучшая мужская роль второго плана (Андрей Краско)
Кинотавр, 2004 год
Номинации (1):
Главный приз «Золотая роза»
72
Этот фильм один из моих любимых. С каждым просмотром меня поражает то, что этот фильм затягивает своей атмосферой и кажется это один из лучших примеров, как нужно показывать атмосферу в кино.
Из недостатков фильма отмечу лишь некоторые флэшбэки, которые явно надуманы и без которых фильм ничего не потеряет. Но это мелочи, по сравнению с потрясающей игрой актеров. Кому-то может показаться, что некоторые персонажи слишком стереотипны, но для таких людей как я, которые лишь слышали о флоте, это тот самый наглядный пример, показывающий флот и людей на флоте.
Рекомендую к просмотру.
10 из 10
Общее
Полное имя : F:\72 метра (2004)\72 metra.2004.DVDRip.[pirat.ca].avi
Формат : AVI
Формат/Информация : Audio Video Interleave
Профиль формата : OpenDML
Размер файла : 2,05 Гбайт
Продолжительность : 1 ч. 57 м.
Общий поток : 2509 Кбит/сек
Программа кодирования : VirtualDubMod 1.5.4.1 (build 2178/release)
Библиотека кодирования : VirtualDubMod build 2178/release
Видео
Идентификатор : 0
Формат : MPEG-4 Visual
Профиль формата : [email protected]
Параметр BVOP формата : Нет
Параметр QPel формата : Нет
Параметр GMC формата : Без точки перехода
Параметр матрицы формата : Выборочная
Идентификатор кодека : XVID
Идентификатор кодека/Подсказка : XviD
Продолжительность : 1 ч. 57 м.
Битрейт : 2056 Кбит/сек
Ширина : 720 пикселей
Высота : 384 пикселя
Соотношение сторон : 1,85:1
Частота кадров : 25,000 кадров/сек
Цветовое пространство : YUV
Субдискретизация насыщенности : 4:2:0
Битовая глубина : 8 бит
Тип развёртки : Прогрессивная
Метод сжатия : С потерями
Бит/(Пиксели*Кадры) : 0.297
Размер потока : 1,68 Гбайт (82%)
Библиотека кодирования : XviD 1.0.3 (UTC 2004-12-20)
Аудио
Идентификатор : 1
Формат : AC-3
Формат/Информация : Audio Coding 3
Расширение режима : CM (complete main)
Параметр Endianness формата : Big
Идентификатор кодека : 2000
Продолжительность : 1 ч. 56 м.
Вид битрейта : Постоянный
Битрейт : 448 Кбит/сек
Каналы : 6 каналов
Расположение каналов : Front: L C R, Side: L R, LFE
Частота : 48,0 КГц
Частота кадров : 31,250 кадров/сек (1536 spf)
Метод сжатия : С потерями
Размер потока : 373 Мбайт (18%)
Выравнивание : Разделение по промежуткам
Продолжительность промежутка : 97 мс. (2,42 видеокадра)
Время предзагрузки промежутка : 96 мс.
Язык : Russian
Download / Скачать

Хотите скачать бесплатно? Зарегистрируйтесь на сайте (ссылка на регистрацию). Pirat.ca - самый быстрый торрент трекер в рунете!

Как скачивать  ·   Что такое торрент  ·   Рейтинг и ограничения

zmaksimz

Корсар

Пост 09-Окт-2016 14:20 (спустя 21 час)

[Q] 

Хороший фильм
[Профиль]  [ЛС] 

hevard

Гроза морей

2108

Пост 09-Окт-2016 20:28 (спустя 6 часов)

[Q] 

Ага... Но "боевик" - это, конечно, сильно сказано!!!

_________________
-Я старый пират и не знаю слов лицензионного соглашения...
[Профиль]  [ЛС] 
Показать сообщения:    
Ответить на тему

Текущее время: Сегодня 17:37

Часовой пояс: GMT + 4



Вы не можете начинать темы
Вы не можете отвечать на сообщения
Вы не можете редактировать свои сообщения
Вы не можете удалять свои сообщения
Вы не можете голосовать в опросах
Вы не можете прикреплять файлы к сообщениям
Вы не можете скачивать файлы

▼ Вниз