ML
     
  Уважаемый Гость!
Вы можете поддержать проект и зарегистрироваться у наших партнеров - онлайн-стратегия MyLands. При регистрации в игре Вы получите код, который сможете активировать после регистрации на pirat.ca и получить 1000 дублонов.

Ваш код:
062e2babcc491faeb40d496cf9a498ac3df6cdd0
 
     

Монах и бес (Николай Досталь) [2016 г., комедия, фантастика, WEB-DLRip-AVC] Original (RUS)[iTunes]

Ответить на тему
 
Автор
Сообщение

Пост 09-Окт-2016 10:30

[Q] 

aleksey99

--Монах и бес-- Производство: Россия, Эталон-фильм, Профит
Год выпуска: 2016 г.
Жанр: комедия, фантастика
Продолжительность: 01:53:03--Мировая премьера: 8 сентября 2016, «Наше Кино»
Российская премьера: 20 октября 2016, «CD Land»--Режиссер: Николай Досталь--В ролях: Тимофей Трибунцев, Георгий Фетисов, Борис Каморзин, Роман Мадянов, Никита Тарасов, Сергей Барковский--Описание: Фантастическая история первой половины XIX века. В мужском монастыре появляется новый насельник Иван Семенович. Но вместе с монахом в монастырь проникают темные силы, которые материализуются в лице Легиона (так он представился Ивану). Легион избрал Ивана объектом своей дьявольской работы, всячески искушая его, чтобы сбить с избранного им пути служения Богу. Но чем сильнее искушение, тем крепче духовные силы Ивана.-- --Качество видео: WEB-DLRip-AVC
Контейнер: MKV
Видео кодек: AVC/H.264
Аудио кодек: AC3
Видео: AVC, 1024x552, 2216 kbps, 24,000 fps, 0.163 bpp
Аудио: 48 kHz, AC3 Dolby Digital, 3/2 (L,C,R,l,r) + LFE ch, ~384 kbps
Cубтитры: отсутствуют
Общее
Уникальный идентификатор : 234155145325650325365324425228091405477 (0xB028A3FE75C2A6A8BE221769894434A5)
Полное имя : H:\Torrent2\Монах и бес (2016).mkv
Формат : Matroska
Версия формата : Version 2
Размер файла : 2,05 Гбайт
Продолжительность : 1 ч. 53 м.
Общий поток : 2602 Кбит/сек
Дата кодирования : UTC 2016-10-06 15:20:40
Программа кодирования : mkvmerge v5.8.0 ('No Sleep / Pillow') built on Sep 2 2012 15:37:04
Библиотека кодирования : libebml v1.2.3 + libmatroska v1.3.0
Видео
Идентификатор : 1
Формат : AVC
Формат/Информация : Advanced Video Codec
Профиль формата : [email protected]
Параметр CABAC формата : Да
Параметр ReFrames формата : 5 кадров
Идентификатор кодека : V_MPEG4/ISO/AVC
Продолжительность : 1 ч. 53 м.
Битрейт : 2216 Кбит/сек
Ширина : 1024 пикселя
Высота : 552 пикселя
Соотношение сторон : 1,85:1
Режим частоты кадров : Постоянный
Частота кадров : 24,000 кадра/сек
Цветовое пространство : YUV
Субдискретизация насыщенности : 4:2:0
Битовая глубина : 8 бит
Тип развёртки : Прогрессивная
Бит/(Пиксели*Кадры) : 0.163
Размер потока : 1,71 Гбайт (83%)
Библиотека кодирования : x264 core 125 r2208 d9d2288
Настройки программы : cabac=1 / ref=5 / deblock=1:-1:-1 / analyse=0x3:0x113 / me=umh / subme=8 / psy=1 / psy_rd=1.00:0.10 / mixed_ref=1 / me_range=16 / chroma_me=1 / trellis=1 / 8x8dct=1 / cqm=0 / deadzone=21,11 / fast_pskip=1 / chroma_qp_offset=-3 / threads=3 / lookahead_threads=1 / sliced_threads=0 / nr=0 / decimate=0 / interlaced=0 / bluray_compat=0 / constrained_intra=0 / bframes=3 / b_pyramid=2 / b_adapt=2 / b_bias=0 / direct=3 / weightb=1 / open_gop=0 / weightp=2 / keyint=250 / keyint_min=24 / scenecut=40 / intra_refresh=0 / rc_lookahead=50 / rc=2pass / mbtree=1 / bitrate=2216 / ratetol=1.0 / qcomp=0.60 / qpmin=0 / qpmax=69 / qpstep=4 / cplxblur=20.0 / qblur=0.5 / ip_ratio=1.40 / aq=1:1.00
Default : Да
Forced : Нет
Аудио
Идентификатор : 2
Формат : AC-3
Формат/Информация : Audio Coding 3
Расширение режима : CM (complete main)
Параметр Endianness формата : Big
Идентификатор кодека : A_AC3
Продолжительность : 1 ч. 53 м.
Вид битрейта : Постоянный
Битрейт : 384 Кбит/сек
Каналы : 6 каналов
Расположение каналов : Front: L C R, Side: L R, LFE
Частота : 48,0 КГц
Частота кадров : 31,250 кадров/сек (1536 spf)
Метод сжатия : С потерями
Размер потока : 311 Мбайт (15%)
Default : Да
Forced : Нет
Трейлер
Download / Скачать

Хотите скачать бесплатно? Зарегистрируйтесь на сайте (ссылка на регистрацию). Pirat.ca - самый быстрый торрент трекер в рунете!

Как скачивать  ·   Что такое торрент  ·   Рейтинг и ограничения

alekzandr

Пост 09-Окт-2016 12:08 (спустя 1 час 38 минут)

[Q] 

Отличный фильм, для людей которые умеют думать масштабно! школьникам и прочим уникумам - можно проходить мимо!
[Профиль]  [ЛС] 

Кристина119

Морской Волк

Пост 09-Окт-2016 15:14 (спустя 3 часа)

[Q] 

отличный фильм Лови бочку
На форуме  [Профиль]  [ЛС] 

usya5

Морской Волк

Пост 09-Окт-2016 21:25 (спустя 6 часов)

[Q] 

Спасибо, посмотрим... Лови бочку
[Профиль]  [ЛС] 

AckiySotona666

Мичман

Пост 09-Окт-2016 22:54 (спустя 1 час 28 минут)

[Q] 

очень ждал, несмотря на потешные комментарии недалёких на трейлер в ютубе)) заценю и вынесу вердикт
[Профиль]  [ЛС] 

demboss

Морской Волк

19

Пост 10-Окт-2016 09:28 (спустя 10 часов)

[Q] 

только вчера про него читал развернутую рецензию, после которой желание смотреть как-то отпало) но вот комментарии "однопалубников" подтолкнули все же скачать и самостоятельно оценить фильм :)
релизеру - спасибо!
Лови бочку
[Профиль]  [ЛС] 

mb1969

Корсар

Пост 05-Ноя-2016 15:46 (спустя 26 дней)

[Q] 

Вначале понравилось, а середины фильма нет!
[Профиль]  [ЛС] 

kinstintin

Гроза морей

Пост 05-Ноя-2016 23:36 (спустя 7 часов)

[Q] 

посмотрим и сделаем самостоятельные выводы)))
Автору респект!!!
[Профиль]  [ЛС] 

Пост 10-Ноя-2016 20:24 (спустя 4 дня)

Топик был перенесен из форума Новинки (HD|DVD|BD| TV|SAT|PDTV| - Rips) в форум Российские фильмы
aleksey99
 
Показать сообщения:    
Ответить на тему

Текущее время: Сегодня 17:43

Часовой пояс: GMT + 4



Вы не можете начинать темы
Вы не можете отвечать на сообщения
Вы не можете редактировать свои сообщения
Вы не можете удалять свои сообщения
Вы не можете голосовать в опросах
Вы не можете прикреплять файлы к сообщениям
Вы не можете скачивать файлы

▼ Вниз