ML
     
  Уважаемый Гость!
Вы можете поддержать проект и зарегистрироваться у наших партнеров - онлайн-стратегия MyLands. При регистрации в игре Вы получите код, который сможете активировать после регистрации на pirat.ca и получить 1000 дублонов.

Ваш код:
bc31d8aef74c92e19ad67e34a8fa63c3b9b812fb
 
     

Дедушка (Игорь Москвитин) [2016 г., мелодрама, WEB-DLRip-AVC]

Ответить на тему
 
Автор
Сообщение

Пост 11-Окт-2016 21:33

[Q] 

somik

Легенда

-Дедушка-- Производство: Россия, Компания NRG Film
Режиссер: Игорь Москвитин
Жанр: мелодрама
Год выпуска: 2016 г.
Продолжительность: 01:44:45
Российская премьера: 7 октября 2016
В ролях: Сергей Чонишвили, Леонид Громов, Антонина Паперная, Фатима Горбенко, Владимир Киммельман, Любава Берло, Елена Валюшкина-Описание: У Ирины, медсестры из маленького городка, — порок сердца. По прогнозам врачей её сердцу осталось биться недолго, а позаботиться о шестилетней дочери Анне некому. Ирина лихорадочно пытается найти выход и у неё появляется мысль, что Аню мог бы взять на воспитание дедушка — отец молодого человека, бросившего Ирину беременной. Всё, что она знает о дедушке дочери, Игоре Васильевиче Кутепове, что он довольно успешный бизнесмен и ему 63 года.-Сэмпл КиноПоиск
Качество видео: WEB-DLRip-AVC
Контейнер: MKV
Видео кодек: MPEG4 AVC
Аудио кодек: AC3
Видео: 1600 Кбит/с, 1024x576, 25 кадр/с
Аудио: AC3, 2 ch, 192 Кбит/с, 48,0
Cубтитры: отсутствуют
Общее
Уникальный идентификатор : 214377137478908152247171072451051644004 (0xA14788EBAF4FDF528946E2561045E464)
Полное имя : J:\Дедушка\Dedushka.2016.WEB-DLRip-AVC.by.[pirat.ca].mkv
Формат : Matroska
Версия формата : Version 2
Размер файла : 1,37 Гбайт
Продолжительность : 1 ч. 44 м.
Общий поток : 1870 Кбит/сек
Дата кодирования : UTC 2016-10-10 02:34:22
Программа кодирования : mkvmerge v6.1.0 ('Old Devil') built on Mar 4 2013 09:10:42
Библиотека кодирования : libebml v1.3.0 + libmatroska v1.4.0
Видео
Идентификатор : 1
Формат : AVC
Формат/Информация : Advanced Video Codec
Профиль формата : [email protected]
Параметр CABAC формата : Да
Параметр ReFrames формата : 9 кадров
Идентификатор кодека : V_MPEG4/ISO/AVC
Продолжительность : 1 ч. 44 м.
Битрейт : 1676 Кбит/сек
Ширина : 1024 пикселя
Высота : 576 пикселей
Соотношение сторон : 16:9
Режим частоты кадров : Постоянный
Частота кадров : 25,000 кадров/сек
Цветовое пространство : YUV
Субдискретизация насыщенности : 4:2:0
Битовая глубина : 8 бит
Тип развёртки : Прогрессивная
Бит/(Пиксели*Кадры) : 0.114
Размер потока : 1,20 Гбайт (88%)
Библиотека кодирования : x264 core 130 r2273 b3065e6
Настройки программы : cabac=1 / ref=9 / deblock=1:-2:-1 / analyse=0x3:0x133 / me=umh / subme=9 / psy=1 / psy_rd=1.00:0.15 / mixed_ref=1 / me_range=32 / chroma_me=1 / trellis=2 / 8x8dct=1 / cqm=0 / deadzone=21,11 / fast_pskip=0 / chroma_qp_offset=-3 / threads=6 / lookahead_threads=1 / sliced_threads=0 / nr=0 / decimate=1 / interlaced=0 / bluray_compat=0 / constrained_intra=0 / bframes=9 / b_pyramid=2 / b_adapt=2 / b_bias=0 / direct=1 / weightb=1 / open_gop=0 / weightp=2 / keyint=250 / keyint_min=25 / scenecut=40 / intra_refresh=0 / rc_lookahead=40 / rc=2pass / mbtree=1 / bitrate=1676 / ratetol=1.0 / qcomp=0.60 / qpmin=0 / qpmax=69 / qpstep=4 / cplxblur=20.0 / qblur=0.5 / ip_ratio=1.40 / aq=2:1.00
Default : Да
Forced : Нет
Цветовой диапазон : Limited
Основные цвета : BT.709
Характеристики трансфера : BT.709
Коэффициенты матрицы : BT.709
Аудио
Идентификатор : 2
Формат : AC-3
Формат/Информация : Audio Coding 3
Расширение режима : CM (complete main)
Параметр Endianness формата : Big
Идентификатор кодека : A_AC3
Продолжительность : 1 ч. 44 м.
Вид битрейта : Постоянный
Битрейт : 192 Кбит/сек
Каналы : 2 канала
Расположение каналов : Front: L R
Частота : 44,1 КГц
Частота кадров : 28,711 кадров/сек (1536 spf)
Метод сжатия : С потерями
Размер потока : 144 Мбайт (10%)
Default : Да
Forced : Нет
Download / Скачать

Хотите скачать бесплатно? Зарегистрируйтесь на сайте (ссылка на регистрацию). Pirat.ca - самый быстрый торрент трекер в рунете!

Как скачивать  ·   Что такое торрент  ·   Рейтинг и ограничения

kinstintin

Гроза морей

Пост 11-Окт-2016 22:34 (спустя 1 час 1 минута)

[Q] 

Спасибо!!!
посмотрим...
[Профиль]  [ЛС] 

ТАЛИ

Корсар

Пост 15-Окт-2016 01:17 (спустя 3 дня)

[Q] 

Наверно сериал хотели снять, но что-то не срослось, поэтому вот как-то так... Собственно, не думаю что прочитав описание, кому-то, не переваривающему подобный жанр, придет в голову это смотреть. Но вот барышням, которые еще не достигли того возраста, чтобы можно было себе поволить залипать на всякое мелодраматическое мыло, подобный концентрат вполне сгодится. Я, признаюсь, фильмец просмотрела, даже незамысловатую слезу пустила... Чувствую тревожные пенсионерские симптомы, типа потребности начать вязать бесконечный носок:)
[Профиль]  [ЛС] 

Пост 12-Ноя-2016 19:47 (спустя 28 дней)

Топик был перенесен из форума Новинки (HD|DVD|BD| TV|SAT|PDTV| - Rips) в форум Российские фильмы
aleksey99
 
Показать сообщения:    
Ответить на тему

Текущее время: Сегодня 11:59

Часовой пояс: GMT + 4



Вы не можете начинать темы
Вы не можете отвечать на сообщения
Вы не можете редактировать свои сообщения
Вы не можете удалять свои сообщения
Вы не можете голосовать в опросах
Вы не можете прикреплять файлы к сообщениям
Вы не можете скачивать файлы

▼ Вниз