ML
     
  Уважаемый Гость!
Вы можете поддержать проект и зарегистрироваться у наших партнеров - онлайн-стратегия MyLands. При регистрации в игре Вы получите код, который сможете активировать после регистрации на pirat.ca и получить 1000 дублонов.

Ваш код:
aec9a4a936117fb450ba69e519991a0465404b1d
 
     

Жених (Александр Незлобин) [2016 г., комедия, HDRip] Original (RUS)[Лицензия]

Ответить на тему
 
Автор
Сообщение

Пост 13-Окт-2016 07:52

[Q] 

aleksey99

--Жених--«У моей жены есть жених...»-- Производство: Россия, Solaris Promo Production, ТНТ
Год выпуска: 2016 г.
Жанр: комедия
Продолжительность: 01:32:43--Мировая премьера: 16 сентября 2016
Российская премьера: 15 сентября 2016, «Каропрокат»--Режиссер: Александр Незлобин--В ролях: Сергей Светлаков, Светлана Смирнова-Марцинкевич, Филипп Рейнхардт, Ольга Картункова, Дмитрий Никулин, Наталья Паршенкова, Сергей Бурунов, Александр Демидов, Георгий Дронов, Тимофей Зайцев--Описание: Как немец в Россию 9 мая приезжал жениться на русской красавице Алене, с которой они познакомились в Берлине. Счастливая пара едет в деревню — знакомиться с родственниками невесты. Однако туда же приезжает и бывший муж Алены — Толя, который неожиданно решил вернуть жену. Все оборачивается романтическим соперничеством, в которое кроме Толи и Гельмута, вмешиваются их друзья, родственники, а также другие жители деревни — бизнесмен Ерофеев, купивший дом по соседству, заблудившийся танкист и даже змея.-- --Качество видео: HDRip
Контейнер: AVI
Видео кодек: XviD
Аудио кодек: AC3
Видео: 720x400 (1.80:1), 23.976 fps, XviD build 50 ~1658 kbps avg, 0.24 bit/pixel
Аудио: 48 kHz, AC3 Dolby Digital, 3/2 (L,C,R,l,r) + LFE ch, ~448 kbps
Cубтитры: отсутствуют
Общее
Полное имя : H:\Torrent2\Ch3Hux.2016.O.HDRip.1400Mb.avi
Формат : AVI
Формат/Информация : Audio Video Interleave
Размер файла : 1,37 Гбайт
Продолжительность : 1 ч. 32 м.
Общий поток : 2115 Кбит/сек
Программа кодирования : VirtualDubMod 1.5.10.2 (build 2540/release)
Библиотека кодирования : VirtualDubMod build 2540/release
Видео
Идентификатор : 0
Формат : MPEG-4 Visual
Профиль формата : Advanced [email protected]
Параметр BVOP формата : 2
Параметр QPel формата : Нет
Параметр GMC формата : Без точки перехода
Параметр матрицы формата : Default (MPEG)
Идентификатор кодека : XVID
Идентификатор кодека/Подсказка : XviD
Продолжительность : 1 ч. 32 м.
Битрейт : 1658 Кбит/сек
Ширина : 720 пикселей
Высота : 400 пикселей
Соотношение сторон : 16:9
Частота кадров : 23,976 (24000/1001) кадра/сек
Цветовое пространство : YUV
Субдискретизация насыщенности : 4:2:0
Битовая глубина : 8 бит
Тип развёртки : Прогрессивная
Метод сжатия : С потерями
Бит/(Пиксели*Кадры) : 0.240
Размер потока : 1,07 Гбайт (78%)
Библиотека кодирования : XviD 1.2.1 (UTC 2008-12-04)
Аудио
Идентификатор : 1
Формат : AC-3
Формат/Информация : Audio Coding 3
Расширение режима : CM (complete main)
Параметр Endianness формата : Big
Идентификатор кодека : 2000
Продолжительность : 1 ч. 32 м.
Вид битрейта : Постоянный
Битрейт : 448 Кбит/сек
Каналы : 6 каналов
Расположение каналов : Front: L C R, Side: L R, LFE
Частота : 48,0 КГц
Частота кадров : 31,250 кадров/сек (1536 spf)
Метод сжатия : С потерями
Размер потока : 297 Мбайт (21%)
Выравнивание : Разделение по промежуткам
Продолжительность промежутка : 42 мс. (1,00 видеокадр)
Время предзагрузки промежутка : 500 мс.
Трейлер
Download / Скачать

Хотите скачать бесплатно? Зарегистрируйтесь на сайте (ссылка на регистрацию). Pirat.ca - самый быстрый торрент трекер в рунете!

Как скачивать  ·   Что такое торрент  ·   Рейтинг и ограничения



Последний раз редактировалось: aleksey99 (2016-10-29 15:56), всего редактировалось 1 раз

Sector_X

Гроза морей

309

Пост 13-Окт-2016 09:34 (спустя 1 час 42 минуты)

[Q] 

Посмотрим сие творение отечественного кинематографа!!! Спасибо!!! Лови бочку

_________________
[Профиль]  [ЛС] 

Mollchun

Корсар

926

Пост 13-Окт-2016 11:33 (спустя 1 час 58 минут)

[Q] 

Как-то слабенько... И игра, и шутки, и актеры, и сюжет...Но своего зрителя, несомненно, найдет. Раздающему Лови бочку

_________________
[Профиль]  [ЛС] 

SBurkovskoy

Лоцман

Пост 13-Окт-2016 11:33 (спустя 40 секунд)

[Q] 

Будем посмотреть Спасибо!!! Лови бочку
[Профиль]  [ЛС] 

ss80

Флибустьер

36

Пост 13-Окт-2016 12:46 (спустя 1 час 12 минут)

[Q] 

Спасибо!!! Лови бочку
[Профиль]  [ЛС] 

super.ivan836

Боцман

Пост 13-Окт-2016 20:25 (спустя 7 часов)

[Q] 

Спасибо!!! Лови бочку Глянем, глянем
[Профиль]  [ЛС] 

SashaSofer

Штурман

Пост 14-Окт-2016 19:46 (спустя 23 часа)

[Q] 

как фильм? стоит смотреть
[Профиль]  [ЛС] 

ntvsx

Шкипер

Пост 15-Окт-2016 18:21 (спустя 22 часа)

[Q] 

Фильм так себе. Но вот лавстори Маги и Ирины порадовала - ржал аки конь.
[Профиль]  [ЛС] 

kinstintin

Гроза морей

Пост 15-Окт-2016 23:49 (спустя 5 часов)

[Q] 

очередной шедевр нашего кинематографа!
по мне - на раз...
[Профиль]  [ЛС] 

kostyawerty

Штурман

Пост 16-Окт-2016 08:22 (спустя 8 часов)

[Q] 

на работе глянуть сойдет
[Профиль]  [ЛС] 

litvig

Морской Волк

Пост 20-Окт-2016 20:59 (спустя 4 дня)

[Q] 

пишу мало не позитивных отзывов) но тут слабенький фильм получился. Картункова все тянет на себе, ну еще парочка влюбленных местами радует. в целом, досмотрит не каждый до конца) Самый лучший день и то повеселее был Автору респект!!!
[Профиль]  [ЛС] 

aleksey99 ®

282139

Пост 29-Окт-2016 15:58 (спустя 8 дней)

[Q] 

Замена на HDRip звук [Лицензия]

_________________

[Профиль]  [ЛС] 

alex11959

Флибустьер

Пост 29-Окт-2016 16:25 (спустя 27 минут)

[Q] 

На любителя !!!!!!!!!!!!!!!!!!!
[Профиль]  [ЛС] 

kolopolk

Морской Волк

Пост 29-Окт-2016 19:20 (спустя 2 часа 55 минут)

[Q] 

Незлобин режиссер...... Куда катится эта страна?
[Профиль]  [ЛС] 

RnD

Морской Волк

Пост 29-Окт-2016 20:08 (спустя 47 минут)

[Q] 

Для одноразового просмотра самое то. Релизеру - респект
[Профиль]  [ЛС] 

my1979

Корсар

Пост 30-Окт-2016 22:44 (спустя 1 день 2 часа)

[Q] 

до конца не досмотрел, отвлекли. досмотрю ли...
[Профиль]  [ЛС] 

Dobryak

Матрос

Пост 04-Ноя-2016 19:29 (спустя 4 дня)

[Q] 

Всем фашистам, русофобам, бухарям, любителям тупых скотских шуток и ярым сопереживателям цивилизованным европейцам и ненавистникам тупого русского быдла, ну и среднеазиатским нацикам рекомендую к просмотру. Не качайте!
[Профиль]  [ЛС] 

Пост 30-Ноя-2016 10:32 (спустя 25 дней)

Топик был перенесен из форума Новинки (HD|DVD|BD| TV|SAT|PDTV| - Rips) в форум Российские фильмы
aleksey99
 
Показать сообщения:    
Ответить на тему

Текущее время: Сегодня 02:21

Часовой пояс: GMT + 4



Вы не можете начинать темы
Вы не можете отвечать на сообщения
Вы не можете редактировать свои сообщения
Вы не можете удалять свои сообщения
Вы не можете голосовать в опросах
Вы не можете прикреплять файлы к сообщениям
Вы не можете скачивать файлы

▼ Вниз