ML
     
  Уважаемый Гость!
Вы можете поддержать проект и зарегистрироваться у наших партнеров - онлайн-стратегия MyLands. При регистрации в игре Вы получите код, который сможете активировать после регистрации на pirat.ca и получить 1000 дублонов.

Ваш код:
8b29d0f8cd61fe457e59e7df0aa1fab41a2b88b9
 
     

Дизлайк (Павел Руминов) [2016 г., ужасы, WEB-DLRip] Original (RUS)[iTunes]

Ответить на тему
 
Автор
Сообщение

Пост 14-Окт-2016 08:02

[Q] 

aleksey99

--Дизлайк--«Кого не расшарят, того запостят»-- Производство: Россия, Ростелеком, stg Cinema
Год выпуска: 2016 г.
Жанр: ужасы
Продолжительность: 01:27:12--Российская премьера: 22 сентября 2016, «Двадцатый Век Фокс СНГ»--Режиссер: Павел Руминов--В ролях: Мария Вэй, Анастасия Акатова, Диана Мелисон, Олег Гаас, Евгений Дакот, Александр Панин, Никита Московой, Андрей Шугов--Описание: Они — кумиры миллионов, рок-звезды нового поколения! В свои 18-20 лет они зарабатывают за день, сколько их родители за несколько месяцев. Их видео собирают сотни тысяч «лайков», и не важно, разыгрывают ли они прохожих, рассказывают о кино и моде или снимают «вайны». Они — топовые видеоблогеры, за которыми охотятся рекламные агенты, мечтающие через новых звезд Интернета рассказать о своих товарах миру.
Восьмерых самых популярных видеоблогеров российского Интернета собрали в роскошном загородном коттедже, вдали от цивилизации и мобильных сетей на одну ночь, чтобы они продегустировали новый энергетический напиток. Но рекламная дегустация оказалась приманкой, а коттедж — ловушкой. Теперь они все — участники викторины, устроенной неизвестным маньяком, в которой звучит только один вопрос: «Кто заказал ваше убийство?». Каждый неправильный ответ будет стоить жизни одного из них.
Сможет ли кто-то спастись или всем придет дизлайк?-- --Качество видео: WEB-DLRip
Контейнер: AVI
Видео кодек: XviD
Аудио кодек: AC3
Видео: 720x304 (2.37:1), 24 fps, XviD build 50 ~1850 kbps avg, 0.35 bit/pixel
Аудио: 48 kHz, AC3 Dolby Digital, 3/2 (L,C,R,l,r) + LFE ch, ~384 kbps
Cубтитры: отсутствуют
Общее
Полное имя : H:\Torrent2\Dizlike.2O16.O.WEB-DLRip.14OOMB.avi
Формат : AVI
Формат/Информация : Audio Video Interleave
Размер файла : 1,37 Гбайт
Продолжительность : 1 ч. 27 м.
Общий поток : 2244 Кбит/сек
Программа кодирования : VirtualDubMod 1.5.10.2 (build 2540/release)
Библиотека кодирования : VirtualDubMod build 2540/release
Видео
Идентификатор : 0
Формат : MPEG-4 Visual
Профиль формата : Advanced [email protected]
Параметр BVOP формата : 2
Параметр QPel формата : Нет
Параметр GMC формата : Без точки перехода
Параметр матрицы формата : Default (MPEG)
Идентификатор кодека : XVID
Идентификатор кодека/Подсказка : XviD
Продолжительность : 1 ч. 27 м.
Битрейт : 1851 Кбит/сек
Ширина : 720 пикселей
Высота : 304 пикселя
Соотношение сторон : 2,35:1
Частота кадров : 24,000 кадра/сек
Цветовое пространство : YUV
Субдискретизация насыщенности : 4:2:0
Битовая глубина : 8 бит
Тип развёртки : Прогрессивная
Метод сжатия : С потерями
Бит/(Пиксели*Кадры) : 0.352
Размер потока : 1,13 Гбайт (82%)
Библиотека кодирования : XviD 1.2.1 (UTC 2008-12-04)
Аудио
Идентификатор : 1
Формат : AC-3
Формат/Информация : Audio Coding 3
Расширение режима : CM (complete main)
Параметр Endianness формата : Big
Идентификатор кодека : 2000
Продолжительность : 1 ч. 27 м.
Вид битрейта : Постоянный
Битрейт : 384 Кбит/сек
Каналы : 6 каналов
Расположение каналов : Front: L C R, Side: L R, LFE
Частота : 48,0 КГц
Частота кадров : 31,250 кадров/сек (1536 spf)
Метод сжатия : С потерями
Размер потока : 240 Мбайт (17%)
Выравнивание : Разделение по промежуткам
Продолжительность промежутка : 42 мс. (1,00 видеокадр)
Время предзагрузки промежутка : 500 мс.
Трейлер
Download / Скачать

Хотите скачать бесплатно? Зарегистрируйтесь на сайте (ссылка на регистрацию). Pirat.ca - самый быстрый торрент трекер в рунете!

Как скачивать  ·   Что такое торрент  ·   Рейтинг и ограничения

Wolf111

57118

Пост 14-Окт-2016 20:54 (спустя 12 часов)

[Q] 

Очередной распил бюджета, фильм не о чём Отказать
[Профиль]  [ЛС] 

ketzer

Морской Волк

Пост 15-Окт-2016 07:54 (спустя 10 часов)

[Q] 

Он же уже снял "Мертвые дочери" - фильм, у которого на кинопоиске рейтинг даже выше, чем он заслуживает. Вообще, несдающийся чувак, стойкий оловянный солдатик, все снимает редкостную фигню и снимает, но принципиально не бросает это занятие.
[Профиль]  [ЛС] 

ExArH

Шкипер

14

Пост 15-Окт-2016 16:11 (спустя 8 часов)

[Q] 

"Говно твой бизнес" (с) Валя Хейтер
[Профиль]  [ЛС] 

Gu4i

Штурман

Пост 15-Окт-2016 23:09 (спустя 6 часов)

[Q] 

Актеры либо переигрывают либо не доигрывают.
Сюжет отстойный, скопированный с западных - ненавистных и загнивающих фильмов.
За старания раздатчику отдельное спасибо.
Фильм для любителей отечественного трэша.
[Профиль]  [ЛС] 

Пост 17-Ноя-2016 08:48 (спустя 1 месяц 1 день)

Топик был перенесен из форума Новинки (HD|DVD|BD| TV|SAT|PDTV| - Rips) в форум Российские фильмы
aleksey99
 

Gari4

Флибустьер

Пост 27-Ноя-2016 22:29 (спустя 1 месяц 11 дней)

[Q] 

А мне фильм понравился. Да, я понимаю, что сюжет настолько тупой, что даже блогеры с мозгами не будут поддавать фильм огласки, я понимаю, что все ctr c ctr v с той же пилы, ничего нового в фильме нету, а все равно смысл есть. Правда смысл можно передать одной строчкой, а не снимать фильм, но он есть.
В итоге посмотреть один раз и забыть...
[Профиль]  [ЛС] 
Показать сообщения:    
Ответить на тему

Текущее время: Сегодня 21:25

Часовой пояс: GMT + 4



Вы не можете начинать темы
Вы не можете отвечать на сообщения
Вы не можете редактировать свои сообщения
Вы не можете удалять свои сообщения
Вы не можете голосовать в опросах
Вы не можете прикреплять файлы к сообщениям
Вы не можете скачивать файлы

▼ Вниз