ML
     
  Уважаемый Гость!
Вы можете поддержать проект и зарегистрироваться у наших партнеров - онлайн-стратегия MyLands. При регистрации в игре Вы получите код, который сможете активировать после регистрации на pirat.ca и получить 1000 дублонов.

Ваш код:
69f316be79867e9bf99caee9682d20bb11964507
 
     

Отторжение (Владимир Лерт) [2009 г., фантастика, триллер, драма, мелодрама, WEB-DLRip] Original (RUS)

Ответить на тему
 
Автор
Сообщение

Пост 16-Окт-2016 08:21

[Q] 

aleksey99

--Отторжение-- Производство: Россия, Украина, MMG Films
Год выпуска: 2009 г.
Жанр: фантастика, триллер, драма, мелодрама
Продолжительность: 01:27:20--Российская мир: 17 июня 2010--Режиссер: Владимир Лерт--В ролях: Сергей Бабкин, Богдан Ступка, Олесь Кацион, Виктория Билан, Кирилл Кашликов, Владимир Левицкий, Евгения Удовенко, Анатолий Борисенко, Агния Дитковските, Александр Ганноченко, Александр Баширов, Александр Печерица, Алексей Мороз, Александр Светляков, Максим Максимюк, Виктор Черняков, Инна Капинос, Артём Менделенко, Роман Негриенко, Роман Агиенко--Описание: Это история любви при необычных обстоятельствах. По сюжету картины люди в спешке покидают город, небо над которым стало нефритово-зеленого цвета. Все вокруг покрывается стремительно разрастающейся зеленой плесенью, поглощающей все живое. По улице идут колонны танков и бронетехники. Некоторые пешеходы, бесцельно шатающиеся по улицам, ведут себя неадекватно — выкрикивают бессвязные предложения, машут руками и механически совершают нецелесообразные действия. Главному герою картины предстоит выяснить, что происходит с городом — вторжение инопланетного разума или последствия неудачного испытания военных?-- --Качество видео: WEB-DLRip
Контейнер: AVI
Видео кодек: XviD
Аудио кодек: AC3
Видео: 704x352 (2.00:1), 25 fps, XviD build 73 ~2038 kbps avg, 0.33 bit/pixel
Аудио: 48 kHz, AC3 Dolby Digital, 2/0 (L,R) ch, ~192 kbps
Cубтитры: отсутствуют
Общее
Полное имя : H:\Torrent2\Отторжение.2009.WEB-DLRip.avi
Формат : AVI
Формат/Информация : Audio Video Interleave
Размер файла : 1,37 Гбайт
Продолжительность : 1 ч. 27 м.
Общий поток : 2240 Кбит/сек
Программа кодирования : VirtualDubMod 1.5.10.3 | www.virtualdub-fr.org || (build 2550/release)
Библиотека кодирования : VirtualDubMod build 2550/release
Видео
Идентификатор : 0
Формат : MPEG-4 Visual
Профиль формата : Advanced [email protected]
Параметр BVOP формата : 1
Параметр QPel формата : Нет
Параметр GMC формата : Без точки перехода
Параметр матрицы формата : Выборочная
Идентификатор кодека : XVID
Идентификатор кодека/Подсказка : XviD
Продолжительность : 1 ч. 27 м.
Битрейт : 2039 Кбит/сек
Ширина : 704 пикселя
Высота : 352 пикселя
Соотношение сторон : 2,000
Частота кадров : 25,000 кадров/сек
Цветовое пространство : YUV
Субдискретизация насыщенности : 4:2:0
Битовая глубина : 8 бит
Тип развёртки : Прогрессивная
Метод сжатия : С потерями
Бит/(Пиксели*Кадры) : 0.329
Размер потока : 1,24 Гбайт (91%)
Библиотека кодирования : XviD 73
Аудио
Идентификатор : 1
Формат : AC-3
Формат/Информация : Audio Coding 3
Расширение режима : CM (complete main)
Параметр Endianness формата : Big
Идентификатор кодека : 2000
Продолжительность : 1 ч. 27 м.
Вид битрейта : Постоянный
Битрейт : 192 Кбит/сек
Каналы : 2 канала
Расположение каналов : Front: L R
Частота : 48,0 КГц
Частота кадров : 31,250 кадров/сек (1536 spf)
Метод сжатия : С потерями
Размер потока : 120 Мбайт (9%)
Выравнивание : Разделение по промежуткам
Продолжительность промежутка : 40 мс. (1,00 видеокадр)
Время предзагрузки промежутка : 500 мс.
Трейлер
Download / Скачать

Хотите скачать бесплатно? Зарегистрируйтесь на сайте (ссылка на регистрацию). Pirat.ca - самый быстрый торрент трекер в рунете!

Как скачивать  ·   Что такое торрент  ·   Рейтинг и ограничения

zmaksimz

Корсар

Пост 16-Окт-2016 15:58 (спустя 7 часов)

[Q] 

Ну и шлак.
Я такое смотреть не смог.
[Профиль]  [ЛС] 

reza27

Юнга

Пост 16-Окт-2016 22:44 (спустя 6 часов)

[Q] 

Фильм на 4+ конец вводит в ступор dw
[Профиль]  [ЛС] 

ReasonX

Штурман

Пост 21-Окт-2016 01:07 (спустя 4 дня)

[Q] 

Хороший фильм, если пытаться смотреть его серьезно.
Хреновый фильм, если изначально смотришь как треш.
[Профиль]  [ЛС] 
Показать сообщения:    
Ответить на тему

Текущее время: Сегодня 14:29

Часовой пояс: GMT + 4



Вы не можете начинать темы
Вы не можете отвечать на сообщения
Вы не можете редактировать свои сообщения
Вы не можете удалять свои сообщения
Вы не можете голосовать в опросах
Вы не можете прикреплять файлы к сообщениям
Вы не можете скачивать файлы

▼ Вниз