ML
     
  Уважаемый Гость!
Вы можете поддержать проект и зарегистрироваться у наших партнеров - онлайн-стратегия MyLands. При регистрации в игре Вы получите код, который сможете активировать после регистрации на pirat.ca и получить 1000 дублонов.

Ваш код:
ef8b3e8cd07bec918273586d22e5aaf18e0ae925
 
     

Племя (Мирослав Слабошпицкий) [2014 г., драма, криминал, BDRip] [немое кино] + Sub (Eng на звуки)

Ответить на тему
 
Автор
Сообщение

Пост 17-Окт-2016 14:32

[Q] 

somik

Легенда

-Племя-- Производство: Украина, Нидерланды
Режиссер: Мирослав Слабошпицкий
Жанр: драма, криминал
Год выпуска: 2014 г.
Продолжительность: 02:11:52
Российская премьера: 19 февраля 2015, «Utopia Pictures»
Дата выхода DVD: 28 апреля 2015, «CD Land»
В ролях: Григорий Фесенко, Яна Новикова, Роза Бабий, Александр Дзядевич, Ярослав Билецкий, Иван Тишко, Александр Осадчий, Александр Сидельников, Александр Паниван, Кирилл Кошик-Описание: Главный герой фильма, Сергей, попадает в специализированный интернат для слабослышащих, где существует криминальная организация, Племя. Он пытается занять свое место в иерархии школы и принимает участие в нескольких ограблениях. Когда Сергей влюбляется в Анну, одну из наложниц Смотрящего, ему приходится нарушить неписанные законы племени.-Сэмпл КиноПоиск
Качество видео: BDRip
Контейнер: AVI
Видео кодек: XviD
Аудио кодек: AC3
Видео: 704x304 (2.32:1), 23.976 fps, XviD build 73 ~1974 kbps avg, 0.39 bit/pixel
Аудио: 48 kHz, AC3 Dolby Digital, 3/2 (L,C,R,l,r) + LFE ch, ~384 kbps
Cубтитры: Английские только на звуки (для слабослышащих)
Формат субтитров: softsub (SRT)
Доп. информация о субтитрах: внешние
Для проката фильм приобрели Франция, Дания, Япония и Нидерланды.
«Племя» — дебют Мирослава Слабошпицкого в полном метре.
География кастинга была обширной. На роли пробовались претенденты со всей Украины, а также из Гомеля, Рязани, Тольятти, Краснодара.
В картине задействованы 20 глухих персонажей, всех играют непрофессиональные актеры.
Проект финансировали Госкино Украины, Фонд Хуберта Белса Роттердамского кинофестиваля и Фонд Рината Ахметова.
«Племя» — фильм на жестовом языке без субтитров.
В фильме нет музыкального сопровождения, как и в любом другом фильме Мирослава Слабошпицкого.
Фильм состоит из 34 эпизодов.
Несколько сцен отсняли во Львове, хотя сам город в фильме не показывают.
Во время подготовительного периода «Племени» Мирослав Слабошпицкий написал сценарий к полнометражному фильму «Авария».
Ника, 2015 год
Победитель (1):
Лучший фильм стран СНГ и Балтии
Каннский кинофестиваль, 2014 год
Победитель (3):
Награда от прессы
Премия France 4 Visionary
Поддержка дистрибуции от Gan Foundation
Номинации (1):
Золотая камера (награда за режиссерский дебют) (Мирослав Слабошпицкий)
Европейская киноакадемия, 2014 год
Победитель (1):
Открытие года
Фестивальное Племя
- Ты видел Племя?
- Нет.
- Ну, как же, старик? Приз прессы в Каннах и еще куча наград! Срочно надо смотреть.
Примерно такой разговор был у меня с приятелем месяц назад. Неожиданно увидел «Племя» в программке фестиваля «2morrow». Ажиотаж, в фойе не пробиться. Обрывки фраз: «Слабошпицкий опять снял про глухих специально под Канны», «…такое кино ставит диагноз обществу…», «… там такие страсти про Украину…».
Кино оказалось не про Украину и не про глухих. Про жестокость, про предательство, про любовь (не правы те, кто говорит, что ее там нет, возможно, вы ее просто не увидели). Кино без слов. Но и без них все понятно. Кино честное, открытое, искреннее.
Сюжет прост: в интернат приезжает новенький и начинается у него интересная жизнь. Интернат хоть и советской еще постройки и покраски (судя по стенам), но живет своей жизнью в новых реалиях. Зарабатывают денежку и пропитание его обитатели кто как может. А случись чего — кто этих глухих считает.
Да, наверное, до высоких оценок фильм не дотягивает, есть сцены, от которых становится плохо и глаза прячешь. Но все оправдано, не ради самолюбования. В старших классах я бы такое кино показывал в качестве прививки, если еще не поздно. Прививки от жестокости, предательства, нелюбви.
Несмотря на отсутствие крупных планов, все-таки удалось рассмотреть несколько хороших актерских работ — Яна Новикова (главная женская роль) и Александр Сидельников (помощник главаря).
Общее
Полное имя : C:\герои 7\Племя\Plemja.2014.BDRip.[pirat.ca]\Plemja.2014.BDRip.[pirat.ca].avi
Формат : AVI
Формат/Информация : Audio Video Interleave
Профиль формата : OpenDML
Размер файла : 2,18 Гбайт
Продолжительность : 2 ч. 11 м.
Общий поток : 2365 Кбит/сек
Программа кодирования : VirtualDubMod 1.5.10.3 | www.virtualdub-fr.org || (build 2550/release)
Видео
Идентификатор : 0
Формат : MPEG-4 Visual
Профиль формата : Advanced [email protected]
Параметр BVOP формата : 1
Параметр QPel формата : Нет
Параметр GMC формата : Без точки перехода
Параметр матрицы формата : Выборочная
Идентификатор кодека : XVID
Идентификатор кодека/Подсказка : XviD
Продолжительность : 2 ч. 11 м.
Битрейт : 1970 Кбит/сек
Ширина : 704 пикселя
Высота : 304 пикселя
Соотношение сторон : 2,35:1
Частота кадров : 23,976 (23976/1000) кадра/сек
Цветовое пространство : YUV
Субдискретизация насыщенности : 4:2:0
Битовая глубина : 8 бит
Тип развёртки : Прогрессивная
Метод сжатия : С потерями
Бит/(Пиксели*Кадры) : 0.384
Размер потока : 1,81 Гбайт (83%)
Библиотека кодирования : XviD 73
Аудио
Идентификатор : 1
Формат : AC-3
Формат/Информация : Audio Coding 3
Расширение режима : CM (complete main)
Параметр Endianness формата : Big
Идентификатор кодека : 2000
Продолжительность : 2 ч. 11 м.
Вид битрейта : Постоянный
Битрейт : 384 Кбит/сек
Каналы : 6 каналов
Расположение каналов : Front: L C R, Side: L R, LFE
Частота : 48,0 КГц
Частота кадров : 31,250 кадров/сек (1536 spf)
Метод сжатия : С потерями
Размер потока : 362 Мбайт (16%)
Выравнивание : Разделение по промежуткам
Продолжительность промежутка : 42 мс. (1,00 видеокадр)
Время предзагрузки промежутка : 500 мс.
Download / Скачать

Хотите скачать бесплатно? Зарегистрируйтесь на сайте (ссылка на регистрацию). Pirat.ca - самый быстрый торрент трекер в рунете!

Как скачивать  ·   Что такое торрент  ·   Рейтинг и ограничения

kinstintin

Гроза морей

Пост 17-Окт-2016 20:35 (спустя 6 часов)

[Q] 

надо посмотреть шедевр украинского кинематографа))
[Профиль]  [ЛС] 

devikk

Штурман

134

Пост 21-Окт-2016 20:41 (спустя 4 дня)

[Q] 

Вот зачем такую грязь снимать? Мало в жизни г..на, так теперь и на экран его?
Причем самое смердящее.
[Профиль]  [ЛС] 
Показать сообщения:    
Ответить на тему

Текущее время: Сегодня 18:37

Часовой пояс: GMT + 4



Вы не можете начинать темы
Вы не можете отвечать на сообщения
Вы не можете редактировать свои сообщения
Вы не можете удалять свои сообщения
Вы не можете голосовать в опросах
Вы не можете прикреплять файлы к сообщениям
Вы не можете скачивать файлы

▼ Вниз