ML
     
  Уважаемый Гость!
Вы можете поддержать проект и зарегистрироваться у наших партнеров - онлайн-стратегия MyLands. При регистрации в игре Вы получите код, который сможете активировать после регистрации на pirat.ca и получить 1000 дублонов.

Ваш код:
93dbf9fbdfa06c41d3b5a2c3921149ba36168c41
 
     

Счастливый маршрут (Виктория Держицкая) [2013 г., мелодрама, WEB-DLRip]

Ответить на тему
 
Автор
Сообщение

Пост 19-Окт-2016 23:03

[Q] 

somik

Легенда

-Счастливый маршрут-- Производство: Россия, кинокомпания "Русское"
Режиссер: Виктория Держицкая
Жанр: мелодрама
Год выпуска: 2013 г.
Продолжительность: 01:31:00
Российская премьера: 1 сентября 2013
В ролях: Глафира Тарханова, Кирилл Жандаров, Ольга Сташкевич, Елизавета Пащенко, Петр Баранчеев, Ольга Стрелецкая, Анна Шерлинг, Юлия Полынская, Максим Сапрыкин (II), Алиса Майорова-Описание: Женя, простая и на редкость добрая девушка, живет в общежитии и работает водителем троллейбуса. Главное в жизни для нее — помогать людям. Она подменяет коллег на работе, бесплатно селит у себя бывшую учительницу и отдает едва знакомой девочке своё единственное платье. Подружки за глаза подшучивают над бессребреницей и уверены, что ей ничего в жизни не светит.
Но Женя с неиссякаемым оптимизмом продолжает верить, что ее троллейбус едет по счастливому маршруту. И однажды в ее жизнь приходит чудо..-Сэмпл КиноПоиск
Качество видео: WEB-DLRip
Контейнер: AVI
Видео кодек: XviD
Аудио кодек: AC3
Видео: 720x400 (1.80:1), 25 fps, XviD build 73 ~1949 kbps avg, 0.27 bit/pixel
Аудио: 48 kHz, AC3 Dolby Digital, 2/0 (L,R) ch, ~192 kbps
Cубтитры: отсутствуют
Общее
Полное имя : F:\Счастливый маршрут\Счастливый маршрут.2013.WEB-DLRip.[pirat.ca].avi
Формат : AVI
Формат/Информация : Audio Video Interleave
Размер файла : 1,37 Гбайт
Продолжительность : 1 ч. 31 м.
Общий поток : 2151 Кбит/сек
Программа кодирования : VirtualDubMod 1.5.10.3 | www.virtualdub-fr.org || (build 2550/release)
Библиотека кодирования : VirtualDubMod build 2550/release
Видео
Идентификатор : 0
Формат : MPEG-4 Visual
Профиль формата : Advanced [email protected]
Параметр BVOP формата : 1
Параметр QPel формата : Нет
Параметр GMC формата : Без точки перехода
Параметр матрицы формата : Выборочная
Идентификатор кодека : XVID
Идентификатор кодека/Подсказка : XviD
Продолжительность : 1 ч. 31 м.
Битрейт : 1950 Кбит/сек
Ширина : 720 пикселей
Высота : 400 пикселей
Соотношение сторон : 16:9
Частота кадров : 25,000 кадров/сек
Цветовое пространство : YUV
Субдискретизация насыщенности : 4:2:0
Битовая глубина : 8 бит
Тип развёртки : Прогрессивная
Метод сжатия : С потерями
Бит/(Пиксели*Кадры) : 0.271
Размер потока : 1,24 Гбайт (91%)
Библиотека кодирования : XviD 73
Аудио
Идентификатор : 1
Формат : AC-3
Формат/Информация : Audio Coding 3
Расширение режима : CM (complete main)
Параметр Endianness формата : Big
Идентификатор кодека : 2000
Продолжительность : 1 ч. 31 м.
Вид битрейта : Постоянный
Битрейт : 192 Кбит/сек
Каналы : 2 канала
Расположение каналов : Front: L R
Частота : 48,0 КГц
Частота кадров : 31,250 кадров/сек (1536 spf)
Метод сжатия : С потерями
Размер потока : 125 Мбайт (9%)
Выравнивание : Разделение по промежуткам
Продолжительность промежутка : 40 мс. (1,00 видеокадр)
Время предзагрузки промежутка : 500 мс.
Download / Скачать

Хотите скачать бесплатно? Зарегистрируйтесь на сайте (ссылка на регистрацию). Pirat.ca - самый быстрый торрент трекер в рунете!

Как скачивать  ·   Что такое торрент  ·   Рейтинг и ограничения

alex11959

Флибустьер

Пост 20-Окт-2016 00:24 (спустя 1 час 20 минут)

[Q] 

Спасибо!!! !!!!!!!!!!!!!!!!!!
[Профиль]  [ЛС] 

kinstintin

Гроза морей

Пост 20-Окт-2016 21:09 (спустя 20 часов)

[Q] 

Спасибо!!!
Автору респект!!!
[Профиль]  [ЛС] 
Показать сообщения:    
Ответить на тему

Текущее время: Сегодня 20:21

Часовой пояс: GMT + 4



Вы не можете начинать темы
Вы не можете отвечать на сообщения
Вы не можете редактировать свои сообщения
Вы не можете удалять свои сообщения
Вы не можете голосовать в опросах
Вы не можете прикреплять файлы к сообщениям
Вы не можете скачивать файлы

▼ Вниз