ML
     
  Уважаемый Гость!
Вы можете поддержать проект и зарегистрироваться у наших партнеров - онлайн-стратегия MyLands. При регистрации в игре Вы получите код, который сможете активировать после регистрации на pirat.ca и получить 1000 дублонов.

Ваш код:
2fd4e750dd89cae3a36ea360f2b345ccfeb562d3
 
     

Интим не предлагать (Олег Штром) [2016 г., Комедия, SATRip]

Ответить на тему
 
Автор
Сообщение

Пост 21-Окт-2016 17:03

[Q] 

somik

Легенда

-Интим не предлагать-- Производство: Россия, AVK Production
Режиссер: Олег Штром
Жанр: Комедия
Год выпуска: 2016 г.
Продолжительность: 01:29:43
Российская премьера: 21 октября 2016
В ролях: Станислав Бондаренко, Анастасия Савосина, Сергей Чонишвили, Галина Петрова, Антон Сёмкин, Анна Носатова, Дмитрий Бурукин, Юлия Маргулис, Ксения Кубасова-Описание: Красавец Иван обожает своё холостяцкое положение. Он получает удовольствие от собственной независимости и абсолютной свободы. Однако в жизни Ивана настаёт момент, когда его начинает тянуть на домашний уют и комфорт. Сам себе Ваня такое обеспечить не в состоянии, поэтому даёт объявление о том, что требуется умелая прислуга, желательно без образования, но умеющая прекрасно готовить, стирать и убирать. Ваня предоставляет ей жильё — комнату бесплатно, в обмен на это девушка должна обеспечить ему домашний уют. Ваня, когда давал подобное объявление, предполагал, что нашёл гениальное решение проблемы. Но только одного парень не учёл — у судьбы свои планы.-Сэмпл КиноПоиск
Качество видео: SATRip
Контейнер: AVI
Видео кодек: XviD
Аудио кодек: AC3
Видео: 720x400 (1.80:1), 25 fps, XviD build 73 ~1899 kbps avg, 0.26 bit/pixel
Аудио: 48 kHz, AC3 Dolby Digital, 2/0 (L,R) ch, ~192 kbps
Cубтитры: отсутствуют
бщее
Полное имя : J:\Интим не предлагать (2016)\Интим не предлагать.2016.SATRip.[pirat.ca].avi
Формат : AVI
Формат/Информация : Audio Video Interleave
Размер файла : 1,31 Гбайт
Продолжительность : 1 ч. 29 м.
Общий поток : 2102 Кбит/сек
Программа кодирования : VirtualDubMod 1.5.10.3 (build 2550/release)
Библиотека кодирования : VirtualDubMod build 2550/release
Видео
Идентификатор : 0
Формат : MPEG-4 Visual
Профиль формата : Advanced [email protected]
Параметр BVOP формата : 1
Параметр QPel формата : Нет
Параметр GMC формата : Без точки перехода
Параметр матрицы формата : Выборочная
Идентификатор кодека : XVID
Идентификатор кодека/Подсказка : XviD
Продолжительность : 1 ч. 29 м.
Битрейт : 1900 Кбит/сек
Ширина : 720 пикселей
Высота : 400 пикселей
Соотношение сторон : 16:9
Частота кадров : 25,000 кадров/сек
Цветовое пространство : YUV
Субдискретизация насыщенности : 4:2:0
Битовая глубина : 8 бит
Тип развёртки : Прогрессивная
Метод сжатия : С потерями
Бит/(Пиксели*Кадры) : 0.264
Размер потока : 1,19 Гбайт (90%)
Библиотека кодирования : XviD 73
Аудио
Идентификатор : 1
Формат : AC-3
Формат/Информация : Audio Coding 3
Расширение режима : CM (complete main)
Параметр Endianness формата : Big
Идентификатор кодека : 2000
Продолжительность : 1 ч. 29 м.
Вид битрейта : Постоянный
Битрейт : 192 Кбит/сек
Каналы : 2 канала
Расположение каналов : Front: L R
Частота : 48,0 КГц
Частота кадров : 31,250 кадров/сек (1536 spf)
Метод сжатия : С потерями
Размер потока : 123 Мбайт (9%)
Выравнивание : Разделение по промежуткам
Продолжительность промежутка : 40 мс. (1,00 видеокадр)
Время предзагрузки промежутка : 500 мс.
Download / Скачать

Хотите скачать бесплатно? Зарегистрируйтесь на сайте (ссылка на регистрацию). Pirat.ca - самый быстрый торрент трекер в рунете!

Как скачивать  ·   Что такое торрент  ·   Рейтинг и ограничения

ТАЛИ

Корсар

Пост 21-Окт-2016 21:42 (спустя 4 часа)

[Q] 

Я, наверно, что-то не понимаю... Но уже второй раз здесь мне попадается такая фигня, что полное впечатление, будто хотели снять малобюджетное мыло, но плюнули и запихали в фильм. Может это тренд такой сейчас на ТВ? Я просто зомбоящик не смотрю, даже приблизительно не знаю, что там творится. Теперь там вот так, да? А сюда это зачем выложено? Вопрос риторический:)
[Профиль]  [ЛС] 

super.ivan836

Боцман

Пост 22-Окт-2016 09:14 (спустя 11 часов)

[Q] 

Я, наверно, что-то не понимаю... Но уже второй раз здесь мне попадается такая фигня, что полное впечатление, будто хотели снять малобюджетное мыло, но плюнули и запихали в фильм. Может это тренд такой сейчас на ТВ? Я просто зомбоящик не смотрю, даже приблизительно не знаю, что там творится. Теперь там вот так, да? А сюда это зачем выложено? Вопрос риторический:)
И я не понял!?? А фильм то как? Хороший, плохой?
[Профиль]  [ЛС] 

Petrako

Штурман

Пост 22-Окт-2016 20:02 (спустя 10 часов)

[Q] 

Видио не очень)))
[Профиль]  [ЛС] 

kinstintin

Гроза морей

Пост 10-Ноя-2016 19:57 (спустя 18 дней)

[Q] 

посмотрим...
заберу, своим коллегам на работе посмотреть)))
[Профиль]  [ЛС] 

Пост 21-Ноя-2016 22:47 (спустя 11 дней)

Топик был перенесен из форума Новинки (HD|DVD|BD| TV|SAT|PDTV| - Rips) в форум Российские фильмы
aleksey99
 
Показать сообщения:    
Ответить на тему

Текущее время: Сегодня 14:11

Часовой пояс: GMT + 4



Вы не можете начинать темы
Вы не можете отвечать на сообщения
Вы не можете редактировать свои сообщения
Вы не можете удалять свои сообщения
Вы не можете голосовать в опросах
Вы не можете прикреплять файлы к сообщениям
Вы не можете скачивать файлы

▼ Вниз