ML
     
  Уважаемый Гость!
Вы можете поддержать проект и зарегистрироваться у наших партнеров - онлайн-стратегия MyLands. При регистрации в игре Вы получите код, который сможете активировать после регистрации на pirat.ca и получить 1000 дублонов.

Ваш код:
21acd5966619d49ad0b90c3305467b4646cc11a8
 
     

Заезжий молодец (Кира Ангелина) [2014 г., мелодрама, WEB-DLRip]

Ответить на тему
 
Автор
Сообщение

Пост 21-Окт-2016 18:58

[Q] 

somik

Легенда

-Заезжий молодец-- Производство: Россия
Режиссер: Кира Ангелина
Жанр: мелодрама
Год выпуска: 2014 г.
Продолжительность: 01:30:42
Российская премьера: 22 ноября 2014
В ролях: Мария Куликова, Александр Усердин, Алексей Зубков, Артур Псакин, Наталия Просветова, Диана Енакаева, Татьяна Шатилова, Александр Сергеев, Олег Юдин, Роман Багратионов-Описание: Лариса — сильная женщина, которая давно привыкла сама справляться с любыми проблемами. Она в одиночку воспитывает непростого сына-подростка, тяжёлым трудом зарабатывает на жизнь, и давно отчаялась обрести личное счастье.
Соседка Ларисы, желая завладеть её домом, сводит героиню со своим племянником Олегом, недалеким солдафоном. Устав от бесконечного одиночества, Лариса пытается построить с ним отношения, но сговор вскоре раскрывается…
Неожиданно Лариса становится свидетельницей того, как полиция задерживает на улице мужчину без документов. Проникнувшись к незнакомцу, героиня помогает ему освободиться и платит за него штраф. На следующий день спасённый появляется у неё дома, но вовсе не затем, чтобы отдать долг — он просит Ларису о ночлеге. В гневе героиня прогоняет его, но дальнейшие события в корне меняют отношение женщины к этому человеку, так странно появившемуся в её жизни…-Сэмпл КиноПоиск
Качество видео: WEB-DLRip
Контейнер: AVI
Видео кодек: XviD
Аудио кодек: AC3
Видео: 720x400 (1.80:1), 25 fps, XviD build 73 ~1954 kbps avg, 0.27 bit/pixel
Аудио: 48 kHz, AC3 Dolby Digital, 2/0 (L,R) ch, ~192 kbps
Cубтитры: отсутствуют
Либертанго: Я ему отчима искала, а ему оказывается младшая сестрёнка нужна была!.. Понимаешь?..
Загадка фильма в оглушающей простоте и достоверности, обыденности что ли событий. Какой кадр не возьми, всё так знакомо и понятно, что, кажется, и смотреть то не надо. И так всё ясно. Даже когда соседка-интриганка театрально таращит глаза у забора — без труда опознаёшь её в круге своих дачных знакомых.
И всё-таки фильм надо смотреть! Потому что даже копеечные затруднения покупателей у продавщицы Ларисы (Мария Куликова) вызывает понимание и сочувствие, а если нужно — она готова за человека постоять и помочь по-настоящему. И вот уже, кажется, женщина уверенно стоит на ногах… Но… Сын её, оказывается, в таком возрасте, когда надо постоять (!) за сына. Надо что-то решать, надо что то делать… Борьба за сына, когда разум и чувства сталкиваются, оборачиваются для ещё нестарой женщины такой пронзительной ослепляющей болью, что едва не обрушивает её шанс на счастье. И когда, в попытке оправдать свой всплеск лютого недоверия к нормальному, наконец-то, мужику, она рассказывает о своих ранах, кажется перед зрителем предстаёт пронзительная вековечная правда жизни.
Явление Марии Куликовой в российском кинематографе последних лет напоминает Либертанго в исполнении Астора Пьяццоллы. Из фильма в фильм, от сюжета к сюжету слышна эта великолепная мелодия, этот ритм, эта драма. В каждом своём явлении Мария Куликова пытается докричаться или достучаться до своего любимого, выплеснуться или вывернуться творческим огнём, но эти выплески и выворот не заканчивается одним фильмом, а вплетаются в новые сюжеты сценаристов. И нет сил остановить эту мелодию, этот танец любви и какого-то высшего откровения, несущего подлинный смысл и оправдание нашего бытия. Это видно и слышно в каждой ноте, в каждом па её танца. И к этой мелодии Пьяццоллы, как и к ролям Марии Куликовой, возвращаешься раз за разом. И это всегда пронзительно и ново!
Ибо этот фильм — подлинно прекрасная работа замечательных женщин: сценариста, режиссёра и актрисы; и это значит, что герои фильма, в конце концов, обязательно находят друг друга!
9 из 10
Общее
Полное имя : F:\Заезжий молодец\Заезжий молодец.2014.WEB-DLRip.[pirat.ca].avi
Формат : AVI
Формат/Информация : Audio Video Interleave
Размер файла : 1,37 Гбайт
Продолжительность : 1 ч. 30 м.
Общий поток : 2156 Кбит/сек
Программа кодирования : VirtualDubMod 1.5.10.3 | www.virtualdub-fr.org || (build 2550/release)
Библиотека кодирования : VirtualDubMod build 2550/release
Видео
Идентификатор : 0
Формат : MPEG-4 Visual
Профиль формата : Advanced [email protected]
Параметр BVOP формата : 1
Параметр QPel формата : Нет
Параметр GMC формата : Без точки перехода
Параметр матрицы формата : Выборочная
Идентификатор кодека : XVID
Идентификатор кодека/Подсказка : XviD
Продолжительность : 1 ч. 30 м.
Битрейт : 1955 Кбит/сек
Ширина : 720 пикселей
Высота : 400 пикселей
Соотношение сторон : 16:9
Частота кадров : 25,000 кадров/сек
Цветовое пространство : YUV
Субдискретизация насыщенности : 4:2:0
Битовая глубина : 8 бит
Тип развёртки : Прогрессивная
Метод сжатия : С потерями
Бит/(Пиксели*Кадры) : 0.271
Размер потока : 1,24 Гбайт (91%)
Библиотека кодирования : XviD 73
Аудио
Идентификатор : 1
Формат : AC-3
Формат/Информация : Audio Coding 3
Расширение режима : CM (complete main)
Параметр Endianness формата : Big
Идентификатор кодека : 2000
Продолжительность : 1 ч. 30 м.
Вид битрейта : Постоянный
Битрейт : 192 Кбит/сек
Каналы : 2 канала
Расположение каналов : Front: L R
Частота : 48,0 КГц
Частота кадров : 31,250 кадров/сек (1536 spf)
Метод сжатия : С потерями
Размер потока : 125 Мбайт (9%)
Выравнивание : Разделение по промежуткам
Продолжительность промежутка : 40 мс. (1,00 видеокадр)
Время предзагрузки промежутка : 500 мс.
Download / Скачать

Хотите скачать бесплатно? Зарегистрируйтесь на сайте (ссылка на регистрацию). Pirat.ca - самый быстрый торрент трекер в рунете!

Как скачивать  ·   Что такое торрент  ·   Рейтинг и ограничения

Показать сообщения:    
Ответить на тему

Текущее время: Сегодня 23:21

Часовой пояс: GMT + 4



Вы не можете начинать темы
Вы не можете отвечать на сообщения
Вы не можете редактировать свои сообщения
Вы не можете удалять свои сообщения
Вы не можете голосовать в опросах
Вы не можете прикреплять файлы к сообщениям
Вы не можете скачивать файлы

▼ Вниз