ML
     
  Уважаемый Гость!
Вы можете поддержать проект и зарегистрироваться у наших партнеров - онлайн-стратегия MyLands. При регистрации в игре Вы получите код, который сможете активировать после регистрации на pirat.ca и получить 1000 дублонов.

Ваш код:
1a5b0a965618b2c406d4279ec9924ee6282c60cf
 
     

Четвертая планета (Дмитрий Астрахан) [1995 г., фантастика, DVDRip-AVC]

Ответить на тему
 
Автор
Сообщение

Пост 23-Окт-2016 06:42

[Q] 

somik

Легенда

-Четвертая планета-- Производство: Россия, Ленфильм
Режиссер: Дмитрий Астрахан
Жанр: фантастика
Год выпуска: 1995 г.
Продолжительность: 01:27:27
Российская премьера: 21 марта 1995
В ролях: Юрий Орлов, Анатолий Котенёв, Владимир Привалов, Дэниэл МакВикар, Анатолий Журавлёв, Ольга Беляева, Валентин Букин, Валерий Кравченко, Геннадий Воропаев, Виктор Гоголев ...-Описание: Международный экипаж космической экспедиции (двое русских и американец) обнаруживают на четвертой от Солнца планете провинциальный советский городок времен застоя. Марсиане гипнотизируют космонавтов, заставляя их поверить, что они уже вернулись с Марса, но угодили в собственное прошлое.
Торжественная встреча героев, овации, фанфары и — грязь, мерзость, беспробудное пьянство. Есть ли жизнь на Марсе? Конечно нет — разве ж это жизнь?
Именно в этом городке учился в средней школе командир корабля полковник Сергей Беляев, он узнает свой двор, где прошло его детство. И главное, он встречает Таню, девушку, которую он любил и которую ровно 20 лет назад, день в день, убил пьяный подонок.
У Сергея появляется возможность спасти свою любовь. Но для этого придется отказаться от возвращения на Землю, чтобы остаться в прошлом вместе с Таней.-Сэмпл КиноПоиск
Качество видео: DVDRip-AVC
Контейнер: MKV
Видео кодек: MPEG4 AVC
Аудио кодек: MP3
Видео: [email protected] (16:9), 25.000 fps, 3 100 Kbps (0.420 bit/pixel)
Аудио: MP3, 44.1 KHz, 2 ch, 192 Kbps, CBR
Cубтитры: отсутствуют
Съёмки фильма проходили в городе Шлиссельбург Ленинградской области.
Исполнительница роли Тани Ольга Беляева в реальности погибла в 2000 году.
Приз за лучшую режиссуру на Международном кинофестивале фантастических фильмов в Ситхесе ("Испания, 1996 г.)
Те же друзья, те же знакомые лица, словно никуда не уезжал и не было двадцати лет разлуки, нравы знакомых людей и их поведение осталось прежним, так же как не изменилось название города детства «Зареченск «!
Всё, то же самое, те же узнаваемые переулки; тополя; кафе на углу; управдом, который вечно лезет к тебе в душу со своими советами; дом детства и притягивающие магнетизмом окна квартиры в которой должна была жить первая любовь детства, Татьяна. Но, как же это странно, неужели время не всесильно, как может всё оставаться прежним? Как может сейчас выйти ему навстречу, та красивая блондинка, с озорной чёлкой?, ведь это она, Татьяна, но она же умерла!. Стоп! Но этого не может быть по определению, ведь это не Земля, это четвёртая планета от солнца — Марс, здесь вообще не должно быть жизни!
Словно весы для принятия решения, на знакомой, но чужой планете для Сергея Беляева встают вопросы, на которые необходим ответ, что пересилит! На одной стороне мечта о взаимной любви, только сейчас такая достижимая и веская, которую нужно спасти и сохранить. На другой стороне двадцать лет стремления к осуществлению мечты — покорения космоса. Только одно уже воплотилось в жизнь, а на другое словно насмешкой судьбы, предоставляется второй шанс, когда нужно через очень многое переступить. Что же в конце концов он выберет, что окажется для него важнее, все эти вопросы найдут своё воплощение в конце фильма.
Для меня данная картина, стала своего рода откровением — честно сказать не ожидал, что в 1995 году, в период дегродации и упадничества нашего кинематографа, на свет могла появится такая лента, в ней нет прозападного копирования, она не срисована калькой, с картин Голливуда — это наше кино, с нашей душой, для нашего зрителя!
10 из 10
Общее
Уникальный идентификатор : 325494194877474793237693271922402138427 (0xF4DFE6D37194298A034D1627E2BC193B)
Полное имя : J:\Четвертая планета\Chetvjortaja planeta 1995.DVDRip-AVC.[pirat.ca].mkv
Формат : Matroska
Версия формата : Version 2
Размер файла : 2,01 Гбайт
Продолжительность : 1 ч. 27 м.
Общий поток : 3296 Кбит/сек
Дата кодирования : UTC 2013-02-23 21:52:18
Программа кодирования : Lavf53.24.0
Библиотека кодирования : Lavf53.24.0 / Lavf53.24.0
Видео
Идентификатор : 1
Формат : AVC
Формат/Информация : Advanced Video Codec
Профиль формата : [email protected]
Параметр CABAC формата : Да
Параметр ReFrames формата : 2 кадра
Идентификатор кодека : V_MPEG4/ISO/AVC
Продолжительность : 1 ч. 27 м.
Битрейт : 3100 Кбит/сек
Ширина : 696 пикселей
Высота : 424 пикселя
Соотношение сторон : 16:9
Соотношение сторон в оригинале : 16:9
Режим частоты кадров : Постоянный
Частота кадров : 25,000 кадров/сек
Цветовое пространство : YUV
Субдискретизация насыщенности : 4:2:0
Битовая глубина : 8 бит
Тип развёртки : Прогрессивная
Бит/(Пиксели*Кадры) : 0.420
Размер потока : 1,86 Гбайт (92%)
Библиотека кодирования : x264 core 120 r2120
Настройки программы : cabac=1 / ref=2 / deblock=1:0:0 / analyse=0x1:0x131 / me=hex / subme=7 / psy=1 / psy_rd=1.00:0.00 / mixed_ref=0 / me_range=16 / chroma_me=1 / trellis=2 / 8x8dct=0 / cqm=0 / deadzone=21,11 / fast_pskip=1 / chroma_qp_offset=-2 / threads=12 / sliced_threads=0 / nr=0 / decimate=0 / interlaced=0 / bluray_compat=0 / constrained_intra=0 / bframes=3 / b_pyramid=0 / b_adapt=1 / b_bias=0 / direct=3 / weightb=1 / open_gop=0 / weightp=2 / keyint=250 / keyint_min=25 / scenecut=40 / intra_refresh=0 / rc_lookahead=40 / rc=2pass / mbtree=1 / bitrate=3100 / ratetol=1.0 / qcomp=0.60 / qpmin=10 / qpmax=69 / qpstep=4 / cplxblur=20.0 / qblur=0.5 / vbv_maxrate=24000 / vbv_bufsize=24000 / nal_hrd=none / ip_ratio=1.40 / aq=1:1.00
Язык : Russian
Default : Да
Forced : Нет
Аудио
Идентификатор : 2
Формат : MPEG Audio
Версия формата : Version 1
Профиль формата : Layer 3
Идентификатор кодека : A_MPEG/L3
Идентификатор кодека/Подсказка : MP3
Продолжительность : 1 ч. 27 м.
Вид битрейта : Постоянный
Битрейт : 192 Кбит/сек
Каналы : 2 канала
Частота : 44,1 КГц
Метод сжатия : С потерями
Размер потока : 120 Мбайт (6%)
Язык : Russian
Default : Да
Forced : Нет
Download / Скачать

Хотите скачать бесплатно? Зарегистрируйтесь на сайте (ссылка на регистрацию). Pirat.ca - самый быстрый торрент трекер в рунете!

Как скачивать  ·   Что такое торрент  ·   Рейтинг и ограничения

alex11959

Флибустьер

Пост 23-Окт-2016 23:05 (спустя 16 часов)

[Q] 

Спасибо!!! !!!!!!!!!!!!!!!
[Профиль]  [ЛС] 
Показать сообщения:    
Ответить на тему

Текущее время: Сегодня 23:50

Часовой пояс: GMT + 4



Вы не можете начинать темы
Вы не можете отвечать на сообщения
Вы не можете редактировать свои сообщения
Вы не можете удалять свои сообщения
Вы не можете голосовать в опросах
Вы не можете прикреплять файлы к сообщениям
Вы не можете скачивать файлы

▼ Вниз